.
Авторизация | Регистрация
Хочешь лучшие торренты? Добавь свой email!
Добавить
» » День независимости: Возрождение / Independence Day: Resurgence (2016) WEBRip 720p | D | звук c CAMRip скачать торрент бесплатно




    День независимости: Возрождение / Independence Day: Resurgence (2016) WEBRip 720p | D | звук c CAMRip скачать торрент бесплатно

    Опубликовал: Админ | Дата: 1-08-2016, 05:02 | Просмотров: 172



    Детально о кино
    Русское название: День независимости: Возрождение
    Русское название в мировом прокате: Independence Day: Resurgence
    Создали в: 2016
    Категория жанра: фантастика, боевик, приключения
    Главный режиссер: Роланд Эммерих

    Актеры
    Лиам Хемсворт, Джефф Голдблюм, Джесси Ашер, Билл Пуллман, Майка Монро, Села Уорд, Уильям Фихтнер, Джадд Хёрш, Брент Спайнер, Патрик Ст. Эсприт

    Сюжет фильма

    Используя инопланетные технологии, жители Земли создали специальную программу по защите планеты. Но ничего не может нас спасти от нового, еще более разрушительного и масштабного инопланетного вторжения — только смелость нескольких героев, которые единственные могут спасти наш мир от уничтожения.

    Снималось в: США
    Киностудия: 20th Century Fox Film Corporation
    Время просмотра: 01: 59: 11
    Перевод текста: дублированный звук c CAMRip
    Файл
    Кодек для видео: H.264
    Качество фильма: WEBRip 720p
    Информация о видео: AVC, 1280x720 (16: 9), 29.970 fps ~ 3500 Kbps
    Информация о звуке:
    AC3, 48 KHz 2 ch ~ 192 Kb/s (русский)
    AC3, 48 KHz 2 ch ~ 192 Kb/s (английский)
    Субтитры: корейские (вшитые, неотключаемые)
    MI:

    Общее
    Уникальный идентификатор : 219862151166519381544170626489056815470 (0xA567E8F97D2BDEC49A389DEAE520E96E)
    Полное имя : Q: TorFIndependence.Day.Resurgence.2016.720p.mkv
    Формат : Matroska
    Версия формата : Version 2
    Размер файла : 3, 23 Гбайт
    Продолжительность : 1 ч. 59 м.
    Общий поток : 3885 Кбит/сек
    Название фильма : Independence Day 2016 Doctor 4e
    Дата кодирования : UTC 2016-07-31 14: 52: 41
    Программа кодирования : mkvmerge v5.4.0 (;Piper;) built on Mar 10 2012 13: 34: 39
    Библиотека кодирования : libebml v1.2.3 + libmatroska v1.3.0
    Видео
    Идентификатор : 1
    Формат : AVC
    Формат/Информация : Advanced Video Codec
    Профиль формата : High@L4.1
    Параметр CABAC формата : Да
    Параметр ReFrames формата : 4 кадра
    Идентификатор кодека : V_MPEG4/ISO/AVC
    Продолжительность : 1 ч. 59 м.
    Битрейт : 3500 Кбит/сек
    Ширина : 1280 пикселей
    Высота : 720 пикселей
    Соотношение сторон : 16: 9
    Режим частоты кадров : Переменный
    Частота кадров : 29, 970 кадров/сек
    Цветовое пространство : YUV
    Субдискретизация насыщенности : 4: 2: 0
    Битовая глубина : 8 бит
    Тип развёртки : Прогрессивная
    Бит/(Пиксели*Кадры) : 0.127
    Размер потока : 2, 85 Гбайт (88%)
    Заголовок : Resurgence
    Библиотека кодирования : x264 core 148 r2694 3b70645
    Настройки программы : cabac=1/ref=4/deblock=1: 0: 0/analyse=0x3: 0x113/me=umh/subme=8/psy=1/psy_rd=1.00: 0.00/mixed_ref=1/me_range=16/chroma_me=1/trellis=1/8x8dct=1/cqm=0/deadzone=21, 11/fast_pskip=1/chroma_qp_offset=-2/threads=40/lookahead_threads=5/sliced_threads=0/nr=0/decimate=1/interlaced=0/bluray_compat=0/constrained_intra=0/bframes=3/b_pyramid=2/b_adapt=2/b_bias=0/direct=3/weightb=1/open_gop=0/weightp=2/keyint=250/keyint_min=25/scenecut=40/intra_refresh=0/rc_lookahead=50/rc=abr/mbtree=1/bitrate=3500/ratetol=1.0/qcomp=0.60/qpmin=0/qpmax=69/qpstep=4/ip_ratio=1.40/aq=1: 1.00
    Язык : English
    Default : Да
    Forced : Нет
    Аудио #1
    Идентификатор : 2
    Формат : AC-3
    Формат/Информация : Audio Coding 3
    Расширение режима : CM (complete main)
    Идентификатор кодека : A_AC3
    Продолжительность : 1 ч. 59 м.
    Вид битрейта : Постоянный
    Битрейт : 192 Кбит/сек
    Каналы : 2 канала
    Расположение каналов : Front: L R
    Частота : 48, 0 КГц
    Битовая глубина : 16 бит
    Метод сжатия : С потерями
    Задержка видео : -46 мс.
    Размер потока : 164 Мбайт (5%)
    Заголовок : Dub_Cam
    Язык : Russian
    Default : Да
    Forced : Нет
    Аудио #2
    Идентификатор : 3
    Формат : AC-3
    Формат/Информация : Audio Coding 3
    Расширение режима : CM (complete main)
    Идентификатор кодека : A_AC3
    Продолжительность : 1 ч. 59 м.
    Вид битрейта : Постоянный
    Битрейт : 192 Кбит/сек
    Каналы : 2 канала
    Расположение каналов : Front: L R
    Частота : 48, 0 КГц
    Битовая глубина : 16 бит
    Метод сжатия : С потерями
    Задержка видео : -46 мс.
    Размер потока : 164 Мбайт (5%)
    Заголовок : Eng_Web
    Язык : English
    Default : Нет
    Forced : Нет

    Семпл
    Скриншоты


    Онлайн видео День независимости: Возрождение


    Размер скачиваемого торрента: 3.23 GB (3472601076 Bytes)

    День независимости: Возрождение/Independence Day: Resurgence (2016) WEBRip 720p | D | звук c CAMRip
    загрузка...
    Рейтинг →
     (голосов: 1, оценка 4/5, голосовать можно 1 раз )

    Другие торренты по теме:

  • День независимости / Independence Day (1996) BDRip от HQCLUB
  • OST - День независимости / Independence Day (2010)
  • День Независимости Республики Беларусь: Mинск (2013) DVBRip
  • Катастрофа на День независимости / Independence Daysaster (2013) HDRip | P скачать через торрент бесплатно
  • День независимости / Independence Day (1996) HDRip-AVC | iPhone | P
  • День независимости / Independence Day (1996) BDRip 720p от Leonardo and Scarabey | P
  • Катастрофа на День независимости / Independence Daysaster (2013) HDRip 720p | P скачать через торрент бесплатно
  • День независимости / Independence Day (1996) HDRip-AVC | Режисерская версия | P


    • Комментарии (0):

      Информация

      Информация

        Посетители, находящиеся в группе Гости, не могут оставлять комментарии в данной новости.

        ↓ Меню



        ↓ Опрос

        А Вы добавили сайт в закладки?
        Да
        Не


        Top 10 за месяц (Фильмы)