.
Авторизация | Регистрация
Хочешь лучшие торренты? Добавь свой email!
Добавить
» » Мутант / Dol-yeon-byeon-i (2015) HDRip | L2 скачать торрент бесплатно




    Мутант / Dol-yeon-byeon-i (2015) HDRip | L2 скачать торрент бесплатно

    Опубликовал: Админ | Дата: 1-08-2016, 05:02 | Просмотров: 68



    Детально о кино
    Русское название: Мутант
    Русское название в мировом прокате: Dol-yeon-byeon-i
    Создали в: 2015
    Категория жанра: Комедия, драма
    Главный режиссер: О Кван Квон

    Актеры
    Кван Су Ли, Бо Ён Пак, Чхон Хи Ли, Гван Чан, Бён Чжун Ли, Хи Вон Ким, Ин Ги Чон, Гэ Нам Мён, Чжи Хо Чхве, Чжи Хун Ли, Сон Чхан Сон, Бон Сон Кан

    Сюжет фильма

    Вся Корея потрясена шокирующим открытием. Молодой мужчина в результате испытаний нового препарата превратился в человека-рыбу. Общество страны разделилось на две части: для одних он герой и друг, для других – враг, предатель и дьявол. Кто же он? Человек или рыба? Мутант по своей натуре или мутант лишь в сознании общества? История человека-рыбы начинается.

    Снималось в: Южная Корея, WooSan Film
    Время просмотра: 01: 32: 40
    Перевод текста: Любительский (двухголосый, закадровый) den904 DeadSno (перевод: Сергей Скворцов)
    Файл
    Качество фильма: HDRip
    Кодек для видео: XviD
    Информация о видео: 720x304, 24.000 fps, ~1934 kbps avg
    Информация о звуке: 48 kHz, AC3, 2 ch, 160 kbps
    MediaInfo
    General
    Complete name : MutaHt.2015.L2.HDRip.avi
    Format : AVI
    Format/Info : Audio Video Interleave
    File size : 1.37 GiB
    Duration : 1h 32mn
    Overall bit rate : 2 110 Kbps
    Writing application : VirtualDubMod 1.5.10.3 | www.virtualdub-fr.org || (build 2550/release)
    Writing library : VirtualDubMod build 2550/release
    Video
    ID : 0
    Format : MPEG-4 Visual
    Format profile : Advanced Simple@L5
    Format settings, BVOP : 1
    Format settings, QPel : No
    Format settings, GMC : No warppoints
    Format settings, Matrix : Default (MPEG)
    Codec ID : XVID
    Codec ID/Hint : XviD
    Duration : 1h 32mn
    Bit rate : 1 941 Kbps
    Width : 720 pixels
    Height : 304 pixels
    Display aspect ratio : 2.35: 1
    Frame rate : 24.000 fps
    Color space : YUV
    Chroma subsampling : 4: 2: 0
    Bit depth : 8 bits
    Scan type : Progressive
    Compression mode : Lossy
    Bits/(Pixel*Frame) : 0.369
    Stream size : 1.26 GiB (92%)
    Writing library : XviD 73
    Audio
    ID : 1
    Format : AC-3
    Format/Info : Audio Coding 3
    Mode extension : CM (complete main)
    Codec ID : 2000
    Duration : 1h 32mn
    Bit rate mode : Constant
    Bit rate : 160 Kbps
    Channel(s) : 2 channels
    Channel positions : Front: L R
    Sampling rate : 48.0 KHz
    Bit depth : 16 bits
    Compression mode : Lossy
    Stream size : 106 MiB (8%)
    Alignment : Split accross interleaves
    Interleave, duration : 42 ms (1.00 video frame)
    Interleave, preload duration : 500 ms

    Скриншоты


    Онлайн видео Мутант


    Размер скачиваемого торрента: 1.37 GB (1466591232 Bytes)

    Мутант/Dol-yeon-byeon-i (2015) HDRip | L2
    загрузка...
    Рейтинг →
     (голосов: 1, оценка 4/5, голосовать можно 1 раз )

    Другие торренты по теме:

  • Мутант / Dol-yeon-byeon-i (2015) BDRip 720p | L2
  • Мутант / Dol-yeon-byeon-i (2015) HDRip от Portablius | L2
  • Мутант / Dol-yeon-byeon-i (2015) BDRemux 1080p | L2


    • Комментарии (0):

      Информация

      Информация

        Посетители, находящиеся в группе Гости, не могут оставлять комментарии в данной новости.

        ↓ Меню



        ↓ Опрос

        А Вы добавили сайт в закладки?
        Да
        Не


        Top 10 за месяц (Фильмы)