.
Авторизация | Регистрация
Хочешь лучшие торренты? Добавь свой email!
Добавить
» » Идеальный выбор / The Perfect Match (2016) BDRip 1080p от ExKinoRay | L скачать торрент бесплатно




    Идеальный выбор / The Perfect Match (2016) BDRip 1080p от ExKinoRay | L скачать торрент бесплатно

    Опубликовал: Админ | Дата: 31-07-2016, 05:00 | Просмотров: 140



    Детально о кино
    Русское название: Идеальный выбор
    Русское название в мировом прокате: The Perfect Match
    Создали в: 2016
    Категория жанра: Комедия, мелодрама
    Главный режиссер: Билле Вудрафф

    Актеры
    Терренс Дженкинс, Пола Пэттон, Кали Хоук, Лорен Лондон, Брэнди Норвуд, Кэсси, Дональд Фэйзон, Даша Поланко, Роберт Кристофер Райли

    Сюжет фильма

    Не верящий в длительные отношения ловелас Чарли заключает пари со своими друзьями, которые убеждены, что он непременно влюбится в женщину, если проведет с ней хотя бы месяц. Вскоре уверенный в своей правоте Чарли встречает очаровательную и загадочную Еву. Поначалу он был уверен, что это будет лишь очередная ничего не значащая интрижка, но в какой-то момент понял, что хочет чего-то большего...

    Снималось в: США
    Киностудия: Codeblack Films, Jorva Entertainment Productions
    Время просмотра: 01: 51: 45
    Перевод текста: Любительский многоголосый (закадровый) | GreenРай Studio
    Файл
    Кодек для видео: MPEG-4
    Качество фильма: BDRip 1080p
    Информация о видео: 1920x1080, 12.7 Mbit/s, 23.976 fps
    Информация о звуке:
    Информация о звуке #01: 48 kHz, AC3, 5.1, 448 Kbps | Любительский многоголосый (закадровый) | GreenРай Studio |
    Информация о звуке #02: 48 kHz, DTS, 5.1, 1510 kbps | Оригинал |
    Субтитры: Английские

    MI
    General
    Unique ID : 224326354575868902283841992172712926945 (0xA8C3AF322B9EEBDABC48945F75829EE1)
    Complete name : G: VideoThe.Perfect.Match.2016.BDRip.1080p.ExKinoRay.mkv
    Format : Matroska
    Format version : Version 4/Version 2
    File size : 9.79 GiB
    Duration : 1h 35mn
    Overall bit rate : 14.6 Mbps
    Movie name : The.Perfect.Match.2016.BDRip.1080p.ExKinoRay
    Encoded date : UTC 2016-07-30 23: 34: 39
    Writing application : mkvmerge v8.3.0 (;Over the Horizon;) 64bit
    Writing library : libebml v1.3.1 + libmatroska v1.4.2
    Video
    ID : 1
    Format : AVC
    Format/Info : Advanced Video Codec
    Format profile : High@L4.1
    Format settings, CABAC : Yes
    Format settings, ReFrames : 4 frames
    Codec ID : V_MPEG4/ISO/AVC
    Duration : 1h 35mn
    Bit rate : 12.7 Mbps
    Width : 1 920 pixels
    Height : 1 080 pixels
    Display aspect ratio : 16: 9
    Frame rate mode : Constant
    Frame rate : 23.976 (24000/1001) fps
    Color space : YUV
    Chroma subsampling : 4: 2: 0
    Bit depth : 8 bits
    Scan type : Progressive
    Bits/(Pixel*Frame) : 0.255
    Stream size : 8.48 GiB (87%)
    Writing library : x264 core 148 r2665+53 6629127 t_mod_Custom 8-bit@all X86_64
    Encoding settings : cabac=1/ref=4/deblock=1: -3: -3/analyse=0x3: 0x133/me=umh/subme=11/psy=1/fade_compensate=0.00/psy_rd=1.05: 0.00/mixed_ref=1/me_range=32/chroma_me=1/trellis=2/8x8dct=1/cqm=0/deadzone=21, 11/fast_pskip=0/chroma_qp_offset=-2/threads=16/lookahead_threads=2/sliced_threads=0/nr=0/decimate=0/interlaced=0/bluray_compat=0/constrained_intra=0/fgo=0/bframes=7/b_pyramid=2/b_adapt=2/b_bias=0/direct=3/weightb=1/open_gop=0/weightp=2/keyint=250/keyint_min=23/scenecut=40/intra_refresh=0/rc_lookahead=150/rc=crf/mbtree=0/crf=18.5000/qcomp=0.60/qpmin=0: 0: 0/qpmax=69: 69: 69/qpstep=4/vbv_maxrate=50000/vbv_bufsize=62500/crf_max=0.0/nal_hrd=none/filler=0/ip_ratio=1.30/pb_ratio=1.20/aq=3: 0.65/aq-sensitivity=10.00/aq-factor=1.00: 1.00: 1.00/aq2=0/aq3=0
    Language : English
    Default : Yes
    Forced : No
    Color range : Limited
    Matrix coefficients : BT.709
    Audio #1
    ID : 2
    Format : AC-3
    Format/Info : Audio Coding 3
    Mode extension : CM (complete main)
    Format settings, Endianness : Big
    Codec ID : A_AC3
    Duration : 1h 35mn
    Bit rate mode : Constant
    Bit rate : 448 Kbps
    Channel(s) : 6 channels
    Channel positions : Front: L C R, Side: L R, LFE
    Sampling rate : 48.0 KHz
    Frame rate : 31.250 fps (1536 spf)
    Compression mode : Lossy
    Delay relative to video : 18ms
    Stream size : 307 MiB (3%)
    Title : MVO
    Language : Russian
    Default : Yes
    Forced : No
    Audio #2
    ID : 3
    Format : DTS
    Format/Info : Digital Theater Systems
    Mode : 16
    Format settings, Endianness : Big
    Codec ID : A_DTS
    Duration : 1h 35mn
    Bit rate mode : Constant
    Bit rate : 1 509 Kbps
    Channel(s) : 6 channels
    Channel positions : Front: L C R, Side: L R, LFE
    Sampling rate : 48.0 KHz
    Frame rate : 93.750 fps (512 spf)
    Bit depth : 24 bits
    Compression mode : Lossy
    Stream size : 1.01 GiB (10%)
    Title : Original
    Language : English
    Default : No
    Forced : No
    Text #1
    ID : 4
    Format : UTF-8
    Codec ID : S_TEXT/UTF8
    Codec ID/Info : UTF-8 Plain Text
    Duration : 1h 34mn
    Bit rate : 90 bps
    Count of elements : 1963
    Stream size : 62.8 KiB (0%)
    Title : Full
    Language : English
    Default : No
    Forced : No
    Text #2
    ID : 5
    Format : UTF-8
    Codec ID : S_TEXT/UTF8
    Codec ID/Info : UTF-8 Plain Text
    Duration : 1h 34mn
    Bit rate : 93 bps
    Count of elements : 2062
    Stream size : 64.5 KiB (0%)
    Title : SDH
    Language : English
    Default : No
    Forced : No
    Menu
    00: 00: 00.000 : en: Chapter 01
    00: 08: 00.480 : en: Chapter 02
    00: 11: 00.368 : en: Chapter 03
    00: 18: 01.580 : en: Chapter 04
    00: 25: 26.108 : en: Chapter 05
    00: 31: 21.713 : en: Chapter 06
    00: 37: 17.318 : en: Chapter 07
    00: 43: 04.999 : en: Chapter 08
    00: 49: 51.864 : en: Chapter 09
    00: 56: 39.688 : en: Chapter 10
    01: 02: 01.468 : en: Chapter 11
    01: 07: 33.508 : en: Chapter 12
    01: 11: 56.854 : en: Chapter 13
    01: 18: 19.904 : en: Chapter 14
    01: 26: 13.168 : en: Chapter 15
    01: 30: 14.242 : en: Chapter 16
    Скриншоты

    Релиз подготовил: Автор релиза:

    Онлайн видео Идеальный выбор


    Размер скачиваемого торрента: 9.79 GB (10516986688 Bytes)

    Идеальный выбор/The Perfect Match (2016) BDRip 1080p от ExKinoRay | L
    загрузка...
    Рейтинг →
     (голосов: 1, оценка 4/5, голосовать можно 1 раз )

    Другие торренты по теме:

  • VA - Автозвук. Лучшее. Идеальный выбор (2014) MP3 скачать через торрент бесплатно
  • Идеальный выбор / The Perfect Match (2016) HDRip | L
  • Идеальный выбор / The Perfect Match (2016) BDRip 1080p от GreenРай Studio | L


    • Комментарии (0):

      Информация

      Информация

        Посетители, находящиеся в группе Гости, не могут оставлять комментарии в данной новости.

        ↓ Меню



        ↓ Опрос

        А Вы добавили сайт в закладки?
        Да
        Не


        Top 10 за месяц (Фильмы)