.
Авторизация | Регистрация
Хочешь лучшие торренты? Добавь свой email!
Добавить
» » Подвиды 3: Жажда Крови / Bloodlust: Subspecies III (1994) BDRemux 1080p скачать торрент бесплатно




    Подвиды 3: Жажда Крови / Bloodlust: Subspecies III (1994) BDRemux 1080p скачать торрент бесплатно

    Опубликовал: Админ | Дата: 28-07-2016, 04:56 | Просмотров: 56



    Детально о кино
    Русское название: Подвиды 3: Жажда Крови
    Русское название в мировом прокате: Bloodlust: Subspecies III
    Создали в: 1994
    Категория жанра: ужасы, фэнтези, триллер
    Главный режиссер: Тед Николау

    Актеры
    Андерс Хове, Денис Дафф, Кевин Спиртас, Мелани Шетнер, Памела Гордон, Ion Haiduc, Michael Della Femina, Michael Denish

    Сюжет фильма

    Напрасно герои думали, что Раду можно убить простым протыканием сердца. Страшная мамулька оживляет его вновь при помощи крови Мишель, которой не удалось покинуть пристанище-склеп из-за наступившего рассвета. Раду вновь полон сил и с наступлением сумерек, прихватив маму и рыпающуюся Мишель, он направился в свой замок. Ребекка, сестра Мишель, вместе со своим другом из американского посольства Мелом и полицейским Марином, а позже и знакомый Мела, который разодет как распоследний десантник собираются на решающую битву с кровососом. Вооружившись, они попытаются предпринять очередную попытку освободить Мишель от назойливого Раду…

    Снималось в: США
    Время просмотра: 01: 21: 40
    Перевод текста: Авторский (одноголосый, закадровый) Андрей Гаврилов
    Файл
    Кодек для видео: MPEG-4
    Качество фильма: BDRemux 1080p
    Информация о видео: 1920x1080/24000 kbps/1080p/23.976 fps/16: 9/High Profile 4.1
    Информация о звуке 1: Русский, AC3 2.0 192 Kbps 48, 0 КГц(Gavrilov)
    Информация о звуке 2: English/DTS-HD Master Audio/5.1/48 kHz/1945 kbps/16-bit (DTS Core: 5.1/48 kHz/1509 kbps/16-bit)(Original)
    Информация о звуке 3: English/FLAC/2.0/48 kHz/~488 kbps (Original)
    Информация о звуке 4: English/Dolby Digital Audio/2.0/48 kHz/192 kbps(Commentary)
    Скриншоты

    Инфо
    Общее
    Уникальный идентификатор : 226968343872896106155457719497696302278 (0xAAC0835343F06D41AF7A361F4AC154C6)
    Полное имя : D: Subspecies.III.1994.BDRemux.1080p.Rus.Eng.mkv
    Формат : Matroska
    Версия формата : Version 4/Version 2
    Размер файла : 15, 3 Гбайт
    Продолжительность : 1 ч. 21 м.
    Режим общего битрейта : Переменный
    Общий поток : 26, 9 Мбит/сек
    Дата кодирования : UTC 2015-03-28 08: 37: 03
    Программа кодирования : mkvmerge v7.3.0 (;Nouages;) 32bit built on Oct 22 2014 18: 44: 01
    Библиотека кодирования : libebml v1.3.0 + libmatroska v1.4.1
    DURATION : 01: 21: 41.024000000
    NUMBER_OF_FRAMES : 459471
    NUMBER_OF_BYTES : 1191255528
    _STATISTICS_WRITING_APP : mkvmerge v7.3.0 (;Nouages;) 32bit built on Oct 22 2014 18: 44: 01
    _STATISTICS_WRITING_DATE_UTC : 2015-03-28 08: 37: 03
    _STATISTICS_TAGS : BPS DURATION NUMBER_OF_FRAMES NUMBER_OF_BYTES
    Видео
    Идентификатор : 1
    Формат : AVC
    Формат/Информация : Advanced Video Codec
    Профиль формата : High@L4.1
    Параметр CABAC формата : Да
    Параметр ReFrames формата : 3 кадра
    Идентификатор кодека : V_MPEG4/ISO/AVC
    Продолжительность : 1 ч. 21 м.
    Вид битрейта : Переменный
    Максимальный битрейт : 35, 0 Мбит/сек
    Ширина : 1920 пикселей
    Высота : 1080 пикселей
    Соотношение сторон : 16: 9
    Режим частоты кадров : Постоянный
    Частота кадров : 23, 976 кадра/сек
    Стандарт вещания : NTSC
    Цветовое пространство : YUV
    Субдискретизация насыщенности : 4: 2: 0
    Битовая глубина : 8 бит
    Тип развёртки : Прогрессивная
    Заголовок : Subspecies.III.1994.1080p.Blu-ray.AVC.DTS-HD.MA.5.1-NTb
    Default : Нет
    Forced : Нет
    Основные цвета : BT.709
    Характеристики трансфера : BT.709
    Коэффициенты матрицы : BT.709
    Аудио #1
    Идентификатор : 2
    Формат : AC-3
    Формат/Информация : Audio Coding 3
    Расширение режима : CM (complete main)
    Параметр Endianness формата : Big
    Идентификатор кодека : A_AC3
    Продолжительность : 1 ч. 21 м.
    Вид битрейта : Постоянный
    Битрейт : 192 Кбит/сек
    Каналы : 2 канала
    Расположение каналов : Front: L R
    Частота : 48, 0 КГц
    Битовая глубина : 16 бит
    Метод сжатия : С потерями
    Размер потока : 112 Мбайт (1%)
    Заголовок : Gavrilov AC3 2.0 192 kbps
    Язык : Russian
    Default : Нет
    Forced : Нет
    Аудио #2
    Идентификатор : 3
    Формат : DTS
    Формат/Информация : Digital Theater Systems
    Профиль формата : MA/Core
    Режим : 16
    Параметр Endianness формата : Big
    Идентификатор кодека : A_DTS
    Продолжительность : 1 ч. 21 м.
    Вид битрейта : Переменный
    Битрейт : Неизвестно/1509 Кбит/сек
    Каналы : 6 каналов
    Расположение каналов : Front: L C R, Side: L R, LFE
    Частота : 48, 0 КГц
    Битовая глубина : 16 бит
    Метод сжатия : Без потерь/Lossy
    Заголовок : Original DTS-HD MA 5.1 1945 kbps
    Язык : English
    Default : Нет
    Forced : Нет
    Аудио #3
    Идентификатор : 4
    Формат : FLAC
    Формат/Информация : Free Lossless Audio Codec
    Идентификатор кодека : A_FLAC
    Продолжительность : 1 ч. 21 м.
    Вид битрейта : Переменный
    Каналы : 2 канала
    Частота : 48, 0 КГц
    Битовая глубина : 16 бит
    Заголовок : Original FLAC 2.0 ~488 kbps
    Библиотека кодирования : libFLAC 1.2.1 (UTC 2007-09-17)
    Язык : English
    Default : Нет
    Forced : Нет
    Аудио #4
    Идентификатор : 5
    Формат : AC-3
    Формат/Информация : Audio Coding 3
    Расширение режима : CM (complete main)
    Параметр Endianness формата : Big
    Идентификатор кодека : A_AC3
    Продолжительность : 1 ч. 21 м.
    Вид битрейта : Постоянный
    Битрейт : 256 Кбит/сек
    Каналы : 2 канала
    Расположение каналов : Front: L R
    Частота : 48, 0 КГц
    Битовая глубина : 16 бит
    Метод сжатия : С потерями
    Размер потока : 150 Мбайт (1%)
    Заголовок : Commentary AC3 2.0
    Язык : English
    Default : Нет
    Forced : Нет
    Меню
    00: 00: 00.000 : en: 00: 00: 00.000
    00: 04: 21.887 : en: 00: 04: 21.887
    00: 09: 46.461 : en: 00: 09: 46.461
    00: 15: 41.691 : en: 00: 15: 41.691
    00: 22: 58.877 : en: 00: 22: 58.877
    00: 28: 29.708 : en: 00: 28: 29.708
    00: 37: 20.572 : en: 00: 37: 20.572
    00: 44: 35.715 : en: 00: 44: 35.715
    00: 53: 05.891 : en: 00: 53: 05.891
    00: 59: 04.833 : en: 00: 59: 04.833
    01: 10: 24.262 : en: 01: 10: 24.262
    01: 18: 31.790 : en: 01: 18: 31.790


    Онлайн видео Подвиды 3: Жажда Крови


    Размер скачиваемого торрента: 15.34 GB (16468322213 Bytes)

    Подвиды 3: Жажда Крови/Bloodlust: Subspecies III (1994) BDRemux 1080p
    загрузка...
    Рейтинг →
     (голосов: 1, оценка 4/5, голосовать можно 1 раз )

    Другие торренты по теме:

  • Подвиды 3: Жажда крови / Bloodlust: Subspecies III (1993) DVDRip
  • Подвиды 3: Жажда крови / Bloodlust: Subspecies III (1994) BDRip 1080p | A
  • Подвиды 3: Жажда Крови / Bloodlust: Subspecies III (1994) BDRip-AVC | A
  • Подвиды 3: Жажда Крови / Bloodlust: Subspecies III (1994) BDRip 720р от SuperMin | A
  • Подвиды 3: Жажда крови / Bloodlust: Subspecies III (1994) BDRip | A
  • Подвиды 3: Жажда Крови / Bloodlust: Subspecies III (1994) BDRip-AVC от k.e.n | A


    • Комментарии (0):

      Информация

      Информация

        Посетители, находящиеся в группе Гости, не могут оставлять комментарии в данной новости.

        ↓ Меню



        ↓ Опрос

        А Вы добавили сайт в закладки?
        Да
        Не


        Top 10 за месяц (Фильмы)