.
Авторизация | Регистрация
Хочешь лучшие торренты? Добавь свой email!
Добавить
» » Безмолвная ночь / Silent Night (2012) BDRip-AVC | P, L1 скачать торрент бесплатно




    Безмолвная ночь / Silent Night (2012) BDRip-AVC | P, L1 скачать торрент бесплатно

    Опубликовал: Админ | Дата: 27-07-2016, 05:01 | Просмотров: 34



    Создали в: Канада, США
    Категория жанра: Ужасы, Триллер
    Время просмотра: 01: 33: 44
    Перевод текста: Профессиональный (многоголосый закадровый) -BaiBako , любительский одноголосый -den904
    Субтитры: Английский
    Главный режиссер: Стивен С. Миллер
    Актеры: Джейми Кинг, Малкольм МакДауэлл, Брендан Фер, Лиза Мари, Донал Лог, Эллен Вонг, Али Татарин, Джессика Камерон, Кортни Палм, Майк О’Брайэн и др.

    Описание фильма

    Шериф маленького американского городка Купер и его напарница Обри Брэдимор пытаются выследить безжалостного убийцу, орудующего прямо в канун Рождества. Но поймать маньяка не так-то просто - ведь город до отказа заполнен людьми в костюмах Санта-Клауса. Ремейк культового фильма 1984 года Тихая ночь, смертельная ночь Чарльза Селлера-младшего.

    Качество фильма: BDRip-AVC
    Информация о видео: AVC, 1024x428 (2.35: 1), 23.976 fps, 2 880 Kbps (0.274 bit/pixel)
    Информация о звуке #1: AC-3, 48.0 KHz, 6 ch, 448 Kbps, CBR (Russian) - многоголосый
    Информация о звуке #2: AC-3, 48.0 KHz, 6 ch, 448 Kbps, CBR (Russian) - одноголосый
    Информация о звуке #3: AC-3, 48.0 KHz, 6 ch, 448 Kbps, CBR (English) - оригинал
    Mediainfo:

    Формат : Matroska
    Версия формата : Version 2
    Размер файла : 2, 77 Гбайт
    Продолжительность : 1 ч. 33 м.
    Общий поток : 4224 Кбит/сек
    Дата кодирования : UTC 2016-07-24 19: 18: 56
    Программа кодирования : mkvmerge v5.3.0 (;I could have danced;) built on Feb 9 2012 10: 38: 07
    Библиотека кодирования : libebml v1.2.3 + libmatroska v1.3.0
    Attachment : Yes
    Видео
    Идентификатор : 1
    Формат : AVC
    Формат/Информация : Advanced Video Codec
    Профиль формата : High@L4.1
    Параметр CABAC формата : Да
    Параметр ReFrames формата : 10 кадров
    Идентификатор кодека : V_MPEG4/ISO/AVC
    Продолжительность : 1 ч. 33 м.
    Битрейт : 2880 Кбит/сек
    Ширина : 1024 пикселя
    Высота : 428 пикселей
    Соотношение сторон : 2, 40: 1
    Режим частоты кадров : Постоянный
    Частота кадров : 23, 976 кадра/сек
    Цветовое пространство : YUV
    Субдискретизация насыщенности : 4: 2: 0
    Битовая глубина : 8 бит
    Тип развёртки : Прогрессивная
    Бит/(Пиксели*Кадры) : 0.274
    Размер потока : 1, 83 Гбайт (66%)
    Библиотека кодирования : x264 core 146 r2538 121396c
    Настройки программы : cabac=1/ref=10/deblock=1: -3: -3/analyse=0x3: 0x133/me=umh/subme=11/psy=1/psy_rd=1.00: 0.15/mixed_ref=1/me_range=32/chroma_me=1/trellis=2/8x8dct=1/cqm=0/deadzone=21, 11/fast_pskip=0/chroma_qp_offset=-3/threads=12/lookahead_threads=2/sliced_threads=0/nr=0/decimate=0/interlaced=0/bluray_compat=0/constrained_intra=0/bframes=8/b_pyramid=2/b_adapt=2/b_bias=0/direct=3/weightb=1/open_gop=0/weightp=2/keyint=240/keyint_min=23/scenecut=40/intra_refresh=0/rc_lookahead=40/rc=2pass/mbtree=0/bitrate=2880/ratetol=1.0/qcomp=0.60/qpmin=0/qpmax=69/qpstep=4/cplxblur=20.0/qblur=0.5/vbv_maxrate=50000/vbv_bufsize=62500/nal_hrd=none/filler=0/ip_ratio=1.40/pb_ratio=1.30/aq=1: 0.70
    Default : Да
    Forced : Нет
    Аудио #1
    Идентификатор : 2
    Формат : AC-3
    Формат/Информация : Audio Coding 3
    Расширение режима : CM (complete main)
    Параметр Endianness формата : Big
    Идентификатор кодека : A_AC3
    Продолжительность : 1 ч. 33 м.
    Вид битрейта : Постоянный
    Битрейт : 448 Кбит/сек
    Каналы : 6 каналов
    Расположение каналов : Front: L C R, Side: L R, LFE
    Частота : 48, 0 КГц
    Битовая глубина : 16 бит
    Метод сжатия : С потерями
    Размер потока : 301 Мбайт (11%)
    Заголовок : Профессиональный многоголосый
    Язык : Russian
    Default : Да
    Forced : Нет
    Аудио #2
    Идентификатор : 3
    Формат : AC-3
    Формат/Информация : Audio Coding 3
    Расширение режима : CM (complete main)
    Параметр Endianness формата : Big
    Идентификатор кодека : A_AC3
    Продолжительность : 1 ч. 33 м.
    Вид битрейта : Постоянный
    Битрейт : 448 Кбит/сек
    Каналы : 6 каналов
    Расположение каналов : Front: L C R, Side: L R, LFE
    Частота : 48, 0 КГц
    Битовая глубина : 16 бит
    Метод сжатия : С потерями
    Размер потока : 301 Мбайт (11%)
    Заголовок : любительский одноголосый
    Язык : Russian
    Default : Нет
    Forced : Нет
    Аудио #3
    Идентификатор : 5
    Формат : AC-3
    Формат/Информация : Audio Coding 3
    Расширение режима : CM (complete main)
    Параметр Endianness формата : Big
    Идентификатор кодека : A_AC3
    Продолжительность : 1 ч. 33 м.
    Вид битрейта : Постоянный
    Битрейт : 448 Кбит/сек
    Каналы : 6 каналов
    Расположение каналов : Front: L C R, Side: L R, LFE
    Частота : 48, 0 КГц
    Битовая глубина : 16 бит
    Метод сжатия : С потерями
    Размер потока : 301 Мбайт (11%)
    Язык : English
    Default : Нет
    Forced : Нет
    Текст
    Идентификатор : 4
    Формат : UTF-8
    Идентификатор кодека : S_TEXT/UTF8
    Идентификатор кодека/Информация : UTF-8 Plain Text
    Язык : English
    Default : Нет
    Forced : Нет
    Меню
    00: 00: 00.000 : : Chapter 01
    00: 02: 27.022 : : Chapter 02
    00: 13: 08.997 : : Chapter 03
    00: 20: 05.996 : : Chapter 04
    00: 28: 25.954 : : Chapter 05
    00: 38: 07.911 : : Chapter 06
    00: 45: 46.994 : : Chapter 07
    00: 52: 42.993 : : Chapter 08
    00: 59: 36.948 : : Chapter 09
    01: 06: 37.952 : : Chapter 10
    01: 12: 20.962 : : Chapter 11
    01: 23: 15.908 : : Chapter 12
    Скриншоты


    Онлайн видео Безмолвная ночь


    Размер скачиваемого торрента: 2.77 GB (2972875946 Bytes)

    Безмолвная ночь/Silent Night (2012) BDRip-AVC | P, L1
    загрузка...
    Рейтинг →
     (голосов: 1, оценка 4/5, голосовать можно 1 раз )

    Другие торренты по теме:

  • Безмолвная ночь / Silent Night (2012) HDRip | P
  • OST - Безмолвная ночь / Silent Night Soundtrack (2012) MP3


    • Комментарии (0):

      Информация

      Информация

        Посетители, находящиеся в группе Гости, не могут оставлять комментарии в данной новости.

        ↓ Меню



        ↓ Опрос

        А Вы добавили сайт в закладки?
        Да
        Не


        Top 10 за месяц (Фильмы)