.
Авторизация | Регистрация
Хочешь лучшие торренты? Добавь свой email!
Добавить
» » Тайны острова Мако / Mako Mermaids (2016) WEBRip 720p от ExKinoRay | L скачать торрент бесплатно




    Тайны острова Мако / Mako Mermaids (2016) WEBRip 720p от ExKinoRay | L скачать торрент бесплатно

    Опубликовал: Админ | Дата: 27-07-2016, 05:01 | Просмотров: 50



    Детально о кино
    Русское название: Тайны Острова Мако (Секрет, Русалки Мако), 3 сезон любимого сериала
    Русское название в мировом прокате: Mako Mermaids
    Создали в: 2016
    Категория жанра: фэнтези, драма, мелодрама, комедия, приключения, семейный
    Снималось в: Австралия, Jonathan M. Shiff Productions
    Время просмотра: 9 x ~ 00: 24: 22
    Главный режиссер: Грант Браун, Ивэн Кларри

    Актеры
    Ондина - Иззи (Изабел) Дюрант
    Мимми - Элли Бертрам
    Вейлан - Linda Ngo
    Зак - Чай Ромруен
    Эви - Джемма Форсайт
    Кэм - Доминик Дойчер
    Карли - Брук Николь Ли
    Дэвид - Роуэн Хиллс
    Крис - Тейлор Глокнер
    Рита Сантос - Керит Эткинсон

    Сюжет фильма
    Австралийский молодёжный сериал, который пришёлся по вкусу так же подросткам в России продолжает интриговать своей сюжетной линией. В сериале присутствует волшебство и тайны, которые окружают обычного парня Зака. Ничего не подозревая, он отправляется на остров Мако, где планирует отдохнуть от городской суеты. Не зная, какие чудеса стоят за этим островом, он ничего не подозревая решил искупаться в полнолуние и тут же обретает удивительные свойства. Когда русалки, охраняющие остров, поняли, что нужно исправлять ситуацию, они превратились в девушек и начали охоту на Зака, что бы отнять у него волшебные способности...
    3 сезон любимого сериала... появление дракона...
    Содержание

    s3e01. Визит с Востока
    s3e02. Не поверишь, пока не увидишь
    s3e03. Рецепт успеха
    s3e04. Прочистка
    s3e05. Магическая шкатулка
    s3e06. Новые Начинания
    s3e07. Неожиданный поворот
    s3e08. Ход Дракона
    s3e09. Удача Отвернулась


    Файл:
    Тип видео: MKV
    Качество фильма: WEBRip 720p
    Информация о видео: MPEG-AVC, 1280x720, 25, 000 кадр/с, ~ 2 231 Кбит/с
    Информация о звуке: 48, 0 КГц, AC3, 2.0, 192 Кбит/с
    Перевод текста: Любительский многоголосый: 1-6 серии - Alternative Production/7-9 серии - Freeze Studio
    Субтитры: нет
    MI

    s3e01. Визит с Востока. W-720p.-merci-.mkv
    Формат : Matroska
    Версия формата : Version 2
    Размер файла : 431 Мбайт
    Продолжительность : 24 м.
    Режим общего битрейта : Переменный
    Общий поток : 2472 Кбит/сек
    Название фильма : Mako Mermaids/3 сезон любимого сериала/2016/-merci-
    Дата кодирования : UTC 2016-06-30 07: 40: 38
    Программа кодирования : mkvmerge v5.8.0 (;No Sleep/Pillow;) built on Sep 2 2012 15: 37: 04
    Библиотека кодирования : libebml v1.2.3 + libmatroska v1.3.0
    Видео
    Идентификатор : 1
    Формат : AVC
    Формат/Информация : Advanced Video Codec
    Профиль формата : Main@L3.1
    Параметр CABAC формата : Да
    Параметр ReFrames формата : 2 кадра
    Параметр GOP формата : M=1, N=24
    Идентификатор кодека : V_MPEG4/ISO/AVC
    Продолжительность : 24 м.
    Вид битрейта : Переменный
    Битрейт : 2231 Кбит/сек
    Максимальный битрейт : 3456 Кбит/сек
    Ширина : 1280 пикселей
    Высота : 720 пикселей
    Соотношение сторон : 16: 9
    Режим частоты кадров : Постоянный
    Частота кадров : 25, 000 кадров/сек
    Цветовое пространство : YUV
    Субдискретизация насыщенности : 4: 2: 0
    Битовая глубина : 8 бит
    Тип развёртки : Прогрессивная
    Бит/(Пиксели*Кадры) : 0.097
    Размер потока : 389 Мбайт (90%)
    Заголовок : s3e01. Визит с Востока. 720p.x264.-merci-
    Язык : English
    Default : Да
    Forced : Нет
    Аудио
    Идентификатор : 2
    Формат : AC-3
    Формат/Информация : Audio Coding 3
    Расширение режима : CM (complete main)
    Параметр Endianness формата : Big
    Идентификатор кодека : A_AC3
    Продолжительность : 24 м.
    Вид битрейта : Постоянный
    Битрейт : 192 Кбит/сек
    Каналы : 2 канала
    Расположение каналов : Front: L R
    Частота : 48, 0 КГц
    Частота кадров : 31, 250 кадров/сек (1536 spf)
    Метод сжатия : С потерями
    Размер потока : 33, 5 Мбайт (8%)
    Заголовок : MVO (Alt Pro)
    Язык : Russian
    Default : Да
    Forced : Нет
    Скриншоты



    Добавил эпизоды:
    + 7-9 - 25.07.2016

    Релиз подготовил:
    Залил: tooon

    Онлайн видео Тайны острова Мако


    Размер скачиваемого торрента: 3.76 GB (4039265599 Bytes)

    Тайны острова Мако/Mako Mermaids (2016) WEBRip 720p от ExKinoRay | L
    загрузка...
    Рейтинг →
     (голосов: 1, оценка 4/5, голосовать можно 1 раз )

    Другие торренты по теме:

  • Тайны острова Мако / Mako Mermaids (2015) WEBRip | Alternative Production
  • Тайны острова Мако / Mako Mermaids (2016) WEBRip 720p | RUS SUB
  • Тайны острова Мако / Mako Mermaids (2016) WEB-DLRip 720p от ExKinoRay | Alt Pro
  • Тайны острова Мако / Mako Mermaids (2013-2016) WEB-DLRip от ExKinoRay | Disney, Alt Pro


    • Комментарии (0):

      Информация

      Информация

        Посетители, находящиеся в группе Гости, не могут оставлять комментарии в данной новости.

        ↓ Меню



        ↓ Опрос

        А Вы добавили сайт в закладки?
        Да
        Не


        Top 10 за месяц (Фильмы)