.
Авторизация | Регистрация
Хочешь лучшие торренты? Добавь свой email!
Добавить
» » Пути и судьбы (1955) SATRip от New-Team скачать торрент бесплатно




    Пути и судьбы (1955) SATRip от New-Team скачать торрент бесплатно

    Опубликовал: Админ | Дата: 26-07-2016, 05:01 | Просмотров: 40



    Снималось в: СССР
    Создали в: Киевская к/ст
    Категория жанра: драма
    Создали в: 1955
    Время просмотра: 01: 18: 09
    Перевод текста: Не требуется
    Субтитры подготовлены: нет
    Оригинальная аудиодорожка: русский
    Главный режиссер: Яков Базелян

    Актеры

    Юрий Саранцев, Аркадий Толбузин, Ролан Быков, Леонид Пирогов, Валентина Ушакова, Татьяна Алексеева, Евгения Ершова, Ада Войцик, Георгий Юматов, Муза Крепкогорская...
    Полный список актёров
    Описание:
    Сельский врач Иван Бойко получает приглашение в столичную клинику. Здесь герой встречает институтского друга Дмитрия Костенко, преуспевающего доцента. Очень скоро Иван убеждается в моральной нечистоплотности Дмитрия, присвоившего научный труд скромного коллеги Венника. Бойко разоблачает перед коллективом нечистого на руку кандидата наук.



    Источник: DVB
    Качество фильма видео: SATRip
    Тип видео видео: AVI
    Информация о видео: 640x480 (4: 3), 25 fps, XviD ~ 1193 kbps avg, 0.155 bit/pixel
    Информация о звуке: 48 kHz, MP3 2.0, 128 kbps
    Раздача от:
    MediaInfo

    Общее
    Полное имя : Puti.i.sudby.1955.SATRip-745_New-team_by_AVP_Studio.avi
    Формат : AVI
    Формат/Информация : Audio Video Interleave
    Размер файла : 744 Мбайт
    Продолжительность : 1 ч. 18 м.
    Общий поток : 1330 Кбит/сек
    Программа кодирования : VirtualDubModRus 1.5.10.2 (build 2542/release)
    Библиотека кодирования : VirtualDubMod build 2542/release
    Видео
    Идентификатор : 0
    Формат : MPEG-4 Visual
    Профиль формата : Advanced Simple@L5
    Параметр BVOP формата : 1
    Параметр QPel формата : Нет
    Параметр GMC формата : Без точки перехода
    Параметр матрицы формата : Выборочная
    Идентификатор кодека : XVID
    Идентификатор кодека/Подсказка : XviD
    Продолжительность : 1 ч. 18 м.
    Битрейт : 1193 Кбит/сек
    Ширина : 640 пикселей
    Высота : 480 пикселей
    Соотношение сторон : 4: 3
    Частота кадров : 25, 000 кадров/сек
    Цветовое пространство : YUV
    Субдискретизация насыщенности : 4: 2: 0
    Битовая глубина : 8 бит
    Тип развёртки : Прогрессивная
    Метод сжатия : С потерями
    Бит/(Пиксели*Кадры) : 0.155
    Размер потока : 667 Мбайт (90%)
    Библиотека кодирования : XviD 1.2.1 (UTC 2008-12-04)
    Аудио
    Идентификатор : 1
    Формат : MPEG Audio
    Версия формата : Version 1
    Профиль формата : Layer 3
    Идентификатор кодека : 55
    Идентификатор кодека/Подсказка : MP3
    Продолжительность : 1 ч. 18 м.
    Вид битрейта : Постоянный
    Битрейт : 128 Кбит/сек
    Каналы : 2 канала
    Частота : 48, 0 КГц
    Метод сжатия : С потерями
    Размер потока : 71, 5 Мбайт (10%)
    Выравнивание : Соединение по промежуткам
    Продолжительность промежутка : 40 мс. (1, 00 видеокадр)
    Время предзагрузки промежутка : 504 мс

    Скриншоты



    Залил: AVPStudio

    Онлайн видео Пути и судьбы (1955) SATRip от New


    Размер скачиваемого торрента: 743.66 MB (779782144 Bytes)

    Пути и судьбы (1955) SATRip от New-Team
    загрузка...
    Рейтинг →
     (голосов: 1, оценка 4/5, голосовать можно 1 раз )

    Другие торренты по теме:

  • Елена Петровна Блаватская - Голос Безмолвия. Семь Врат. Два Пути (1890) MP3
  • В пути / Away We Go (2009) BDRip от HQCLUB
  • Святыни. Пути и чудеса Господни (2008) SATRip
  • Сидоров Георгий Алексеевич - Хронолого-эзотерический анализ развития современной цивилизации. Пути. Дороги. Встречи. Книга 3 (2010) FB2
  • Знак истинного пути (2012) WEBRip 720p
  • Юбилейный концерт Стаса Михайлова - 20 лет в пути (2013) HDTVRip
  • Юбилейный концерт Стаса Михайлова - 20 лет в пути (2013) HDTV 1080i
  • Юбилейный концерт Стаса Михайлова - 20 лет в пути (2013) HDTVRip 720p от MediaClub


    • Комментарии (0):

      Информация

      Информация

        Посетители, находящиеся в группе Гости, не могут оставлять комментарии в данной новости.

        ↓ Меню



        ↓ Опрос

        А Вы добавили сайт в закладки?
        Да
        Не


        Top 10 за месяц (Фильмы)