.
Авторизация | Регистрация
Хочешь лучшие торренты? Добавь свой email!
Добавить
» » Пираньи 3DD / Piranha 3DD (2012) BDRemux 1080p | D скачать торрент бесплатно




    Пираньи 3DD / Piranha 3DD (2012) BDRemux 1080p | D скачать торрент бесплатно

    Опубликовал: Админ | Дата: 26-07-2016, 05:00 | Просмотров: 27



    Детально о кино
    Русское название: Пираньи 3DD
    Русское название в мировом прокате: Piranha 3DD
    Создали в: 2012
    Категория жанра: ужасы, комедия
    Главный режиссер: Джон Гулагер

    Актеры
    Даниэль Панабэйкер, Мэтт Буш, Дэвид Кекнер, Жан-Люк Билодо, Крис Зилка, Катрина Боуден, Адриан Мартинез, Пол Джеймс, Мэган Тэнди, Дэвид Хэсселхофф, Кристофер Ллойд, Винг Реймз и др.

    Сюжет фильма
    Доисторические твари больше не будут ограничиваться поеданием туристов на озере, а проникнут через водопроводные и канализационные сети в бассейны и иные искусственные водоемы нового аквапарка под названием Wilderness Waters. Именно там и развернется основное действие.

    Снималось в: США
    Время просмотра: 01: 22: 41
    Перевод текста 1: Профессиональный (дублированный)
    Перевод текста 2: Любительский (одноголосый закадровый)
    Оригинальная аудиодорожка: английская
    Субтитры: русские, английские (полные, SDH)
    Файл
    Качество фильма: BDRemux 1080p
    Информация о видео: MPEG-4 AVC Video/27994 kbps/1920x1080p/23, 976 fps/16: 9/0.562 bit/pix/High Profile 4.1
    Информация о звуке 1: AC3/Русский/384 kbps/5.1/48 kHz/16-bit (Дубляж)
    Информация о звуке 2: AC3/Русский/384 kbps/5.1/48 kHz/16-bit (VO)
    Информация о звуке 3: DTS-HD Master Audio/English/4218 kbps/5.1/48 kHz/24-bit (DTS Core: 5.1/48 kHz/1509 kbps/24-bit) (Оригинал)
    Скриншоты

    MediaInfo
    Общее
    Уникальный идентификатор : 197549878049305942195893962121224713571 (0x949EB8F9FD08CE1F97DCE6B0812CF563)
    Полное имя : Пираньи 3DD (Piranha 3DD) 2012, США, ужасы, триллер, комедия, BDRemux 1080p GORENOISE.mkv
    Формат : Matroska
    Версия формата : Version 2
    Размер файла : 17, 9 Гбайт
    Продолжительность : 1 ч. 22 м.
    Режим общего битрейта : Переменный
    Общий поток : 30, 9 Мбит/сек
    Название фильма : GORENOISE
    Дата кодирования : UTC 2012-09-18 09: 17: 04
    Программа кодирования : mkvmerge v5.7.0 (;The Whirlwind;) built on Jul 8 2012 20: 08: 51
    Библиотека кодирования : libebml v1.2.3 + libmatroska v1.3.0
    Видео
    Идентификатор : 1
    Формат : AVC
    Формат/Информация : Advanced Video Codec
    Профиль формата : High@L4.1
    Параметр CABAC формата : Да
    Параметр ReFrames формата : 4 кадра
    Идентификатор кодека : V_MPEG4/ISO/AVC
    Продолжительность : 1 ч. 22 м.
    Вид битрейта : Переменный
    Битрейт : 28, 0 Мбит/сек
    Максимальный битрейт : 38, 0 Мбит/сек
    Ширина : 1920 пикселей
    Высота : 1080 пикселей
    Соотношение сторон : 16: 9
    Частота кадров : 23, 976 кадра/сек
    Цветовое пространство : YUV
    Субдискретизация насыщенности : 4: 2: 0
    Битовая глубина : 8 бит
    Тип развёртки : Прогрессивная
    Бит/(Пиксели*Кадры) : 0.562
    Размер потока : 16, 2 Гбайт (90%)
    Заголовок : GORENOISE
    Язык : English
    Default : Да
    Forced : Нет
    Аудио #1
    Идентификатор : 2
    Формат : AC-3
    Формат/Информация : Audio Coding 3
    Расширение режима : CM (complete main)
    Параметр Endianness формата : Big
    Идентификатор кодека : A_AC3
    Продолжительность : 1 ч. 22 м.
    Вид битрейта : Постоянный
    Битрейт : 384 Кбит/сек
    Каналы : 6 каналов
    Расположение каналов : Front: L C R, Side: L R, LFE
    Частота : 48, 0 КГц
    Битовая глубина : 16 бит
    Метод сжатия : С потерями
    Размер потока : 227 Мбайт (1%)
    Заголовок : Профессиональный (дублированный)
    Язык : Russian
    Default : Да
    Forced : Нет
    Аудио #2
    Идентификатор : 3
    Формат : AC-3
    Формат/Информация : Audio Coding 3
    Расширение режима : CM (complete main)
    Параметр Endianness формата : Big
    Идентификатор кодека : A_AC3
    Продолжительность : 1 ч. 22 м.
    Вид битрейта : Постоянный
    Битрейт : 384 Кбит/сек
    Каналы : 6 каналов
    Расположение каналов : Front: L C R, Side: L R, LFE
    Частота : 48, 0 КГц
    Битовая глубина : 16 бит
    Метод сжатия : С потерями
    Размер потока : 227 Мбайт (1%)
    Заголовок : Любительский (одноголосый закадровый)
    Язык : Russian
    Default : Нет
    Forced : Нет
    Аудио #3
    Идентификатор : 4
    Формат : DTS
    Формат/Информация : Digital Theater Systems
    Профиль формата : MA/Core
    Идентификатор кодека : A_DTS
    Продолжительность : 1 ч. 22 м.
    Вид битрейта : Переменный
    Битрейт : 1561 Кбит/сек/1510 Кбит/сек
    Каналы : 6 каналов
    Расположение каналов : Front: L C R, Side: L R, LFE
    Частота : 48, 0 КГц
    Битовая глубина : 24 бит
    Метод сжатия : Без потерь/Lossy
    Заголовок : Оригинал
    Язык : English
    Default : Нет
    Forced : Нет
    Текст #1
    Идентификатор : 5
    Формат : UTF-8
    Идентификатор кодека : S_TEXT/UTF8
    Идентификатор кодека/Информация : UTF-8 Plain Text
    Язык : Russian
    Default : Нет
    Forced : Нет
    Текст #2
    Идентификатор : 6
    Формат : UTF-8
    Идентификатор кодека : S_TEXT/UTF8
    Идентификатор кодека/Информация : UTF-8 Plain Text
    Заголовок : Полные
    Язык : English
    Default : Нет
    Forced : Нет
    Текст #3
    Идентификатор : 7
    Формат : UTF-8
    Идентификатор кодека : S_TEXT/UTF8
    Идентификатор кодека/Информация : UTF-8 Plain Text
    Заголовок : Полные SDH
    Язык : English
    Default : Нет
    Forced : Нет
    Меню
    00: 00: 00.000 : en:
    00: 06: 20.880 : en:
    00: 11: 47.873 : en:
    00: 14: 14.060 : en:
    00: 18: 44.330 : en:
    00: 21: 37.546 : en:
    00: 25: 05.045 : en:
    00: 31: 39.480 : en:
    00: 36: 03.870 : en:
    00: 41: 50.341 : en:
    00: 45: 10.123 : en:
    00: 51: 20.911 : en:
    00: 57: 03.253 : en:
    01: 00: 12.692 : en:
    01: 05: 28.424 : en:
    01: 10: 43.405 : en:


    Онлайн видео Пираньи 3DD


    Размер скачиваемого торрента: 17.85 GB (19169216195 Bytes)

    Пираньи 3DD/Piranha 3DD (2012) BDRemux 1080p | D
    загрузка...
    Рейтинг →
     (голосов: 1, оценка 3/5, голосовать можно 1 раз )

    Другие торренты по теме:

  • Пираньи / Piranha (1995) DVDRip-AVC от New-Team
  • Пираньи / Piranha (1995) DVDRip от New-Team
  • Пираньи / Piranha (1995) DVDRip от New-Team
  • Пираньи / Piranha (2010) BDRemux 1080p
  • Пираньи / Piranha (1978) HDRip | P
  • Пираньи 3DD / Piranha 3DD (2012) BDRip-AVC | iPad
  • OST - Пираньи 3D / Piranha 3D (2010) MP3
  • Пираньи 3D / Piranha 3D (2010) BDRip 1080p | D, A


    • Комментарии (0):

      Информация

      Информация

        Посетители, находящиеся в группе Гости, не могут оставлять комментарии в данной новости.

        ↓ Меню



        ↓ Опрос

        А Вы добавили сайт в закладки?
        Да
        Не


        Top 10 за месяц (Фильмы)