.
Авторизация | Регистрация
Хочешь лучшие торренты? Добавь свой email!
Добавить
» » Бэтмен против Супермена: На заре справедливости / Batman v Superman: Dawn of Justice (2016) DVD9 от New-Team | Лицензия скачать торрент бесплатно




    Бэтмен против Супермена: На заре справедливости / Batman v Superman: Dawn of Justice (2016) DVD9 от New-Team | Лицензия скачать торрент бесплатно

    Опубликовал: Админ | Дата: 25-07-2016, 05:00 | Просмотров: 71



    Детально о кино
    Русское название: Бэтмен против Супермена: На заре справедливости
    Русское название в мировом прокате: Batman v Superman: Dawn of Justice
    Создали в: 2016
    Категория жанра: фантастика, боевик, приключения
    Главный режиссер: Зак Снайдер/Zack Snyder

    Актеры
    Генри Кавилл, Бен Аффлек, Галь Гадот, Эми Адамс, Джесси Айзенберг, Джереми Айронс, Дайан Лэйн, Лоренс Фишбёрн, Холли Хантер, Скут МакНэйри, Каллэн Мулвей, Тао Окамото, Брэндон Спинк, Лорен Коэн, Алан Д. Первин, Марк Эдвард Тейлор, Хью Магвайр, Майкл Шеннон, Ханна Дворкин, Тиффани Л. Эддисон

    Сюжет фильма

    Опасаясь, что действия богоподобного супергероя так и останутся бесконтрольными, грозный и могущественный страж Готэм Сити бросает вызов самому почитаемому в наши дни спасителю Метрополиса, в то время как весь остальной мир решает, какой герой ему по-настоящему нужен. И пока Бэтмен и Супермен пребывают в состоянии войны друг с другом, возникает новая угроза, которая ставит человечество под самую большую опасность, с которой оно когда-либо сталкивалось.

    Снималось в: США
    Киностудия: Atlas Entertainment, Cruel Unusual Films, DC Comics, DC Entertainment, RatPac-Dune Entertainment, Warner Bros. Pictures
    Время просмотра: 02: 25: 27
    Перевод текста: Дублированный Лицензия
    Файл
    Кодек для видео: MPEG2
    Качество фильма: DVD9 R5
    Информация о видео: PAL 16: 9 (720x576(0.488)) MPEG Video, 25, 000 кадр/сек, 5064 Кбит/сек
    Информация о звуке:
    Информация о звуке #1: English (Dolby AC3, 6 ch) 384 Кбит/сек, 48, 0 КГц
    Информация о звуке #2: Czech(Ceske) (Dolby AC3, 6 ch) 384 Кбит/сек, 48, 0 КГц
    Информация о звуке #3: Russian (Dolby AC3, 6 ch) 384 Кбит/сек, 48, 0 КГц
    Субтитры: русские, английские, чешские, эстонские, латышские, литовские, португальские
    DVDInfo
    Title:
    Size: 7.19 Gb ( 7 542 152, 00 KBytes ) - DVD-9
    Enabled regions: 1, 2, 3, 4, 5, 6, 7, 8
    VTS_01 :
    Play Length: 02: 25: 27+00: 00: 01
    Video: PAL 16: 9 (720x576) VBR, Auto Letterboxed
    Audio:
    English (Dolby AC3, 6 ch)
    Czech(Ceske) (Dolby AC3, 6 ch)
    Russian (Dolby AC3, 6 ch)
    Subtitles:
    English
    Czech(Ceske)
    Estonian
    Latvian
    Lithuanian
    Portugues
    Russian
    Czech(Ceske)
    Russian
    VTS_02 :
    Play Length: 00: 00: 10
    Video: PAL 16: 9 (720x576) VBR, Auto Letterboxed
    Audio:
    English (Dolby AC3, 6 ch)
    VTS_03 :
    Play Length: 00: 05: 02
    Video: PAL 16: 9 (720x576) VBR, Auto Letterboxed
    Audio:
    English (Dolby AC3, 2 ch)
    Subtitles:
    English
    Czech(Ceske)
    Estonian
    Latvian
    Lithuanian
    Portugues
    Russian
    Czech(Ceske)
    Russian
    VTS_04 :
    Play Length: 00: 00: 01
    Video: PAL 16: 9 (720x576) VBR, Auto Letterboxed
    * Menus Information *
    VIDEO_TS Menu
    Video:
    PAL 16: 9 (720x576) VBR
    Auto PanScan
    English Language Unit :
    Title Menu
    VTS_01 Menu
    Video:
    PAL 16: 9 (720x576) VBR
    Auto PanScan
    Audio:
    Not specified (Dolby AC3, 2 ch)
    English Language Unit :
    Root Menu
    VTS_02 Menu
    Video:
    NTSC 4: 3 (720x480) VBR
    Auto PanScan, Auto Letterboxed
    English Language Unit :
    Root Menu
    VTS_03 Menu
    Video:
    NTSC 4: 3 (720x480) VBR
    Auto PanScan, Auto Letterboxed
    English Language Unit :
    Root Menu
    VTS_04 Menu
    Video:
    NTSC 4: 3 (720x480) VBR
    Auto PanScan, Auto Letterboxed
    English Language Unit :
    Root Menu

    MediaInfo
    Общее
    Полное имя : D: Новинки 2016Bjetmen.protiv.Supermena.2016.DVD9VIDEO_TSVTS_01_3.VOB
    Формат : MPEG-PS
    Размер файла : 1024 Мбайт
    Продолжительность : 22 м.
    Режим общего битрейта : Переменный
    Общий поток : 6342 Кбит/сек
    Видео
    Идентификатор : 224 (0xE0)
    Формат : MPEG Video
    Версия формата : Version 2
    Профиль формата : Main@Main
    Параметр BVOP формата : Да
    Параметр матрицы формата : Выборочная
    Параметр GOP формата : Variable
    Структура изображения : Frame
    Продолжительность : 22 м.
    Вид битрейта : Переменный
    Битрейт : 5064 Кбит/сек
    Максимальный битрейт : 7500 Кбит/сек
    Ширина : 720 пикселей
    Высота : 576 пикселей
    Соотношение сторон : 16: 9
    Частота кадров : 25, 000 кадров/сек
    Стандарт вещания : PAL
    Цветовое пространство : YUV
    Субдискретизация насыщенности : 4: 2: 0
    Битовая глубина : 8 бит
    Тип развёртки : Чересстрочная
    Порядок развёртки : Верхнее поле первое
    Метод сжатия : С потерями
    Бит/(Пиксели*Кадры) : 0.488
    Временной код первого кадра : 01: 45: 50: 08
    Оригинал временного кода : Group of pictures t_head
    GOP, открыто/закрыто : Закрыто
    Размер потока : 818 Мбайт (80%)
    Аудио #1
    Идентификатор : 189 (0xBD)-128 (0x80)
    Формат : AC-3
    Формат/Информация : Audio Coding 3
    Расширение режима : CM (complete main)
    Параметр Endianness формата : Big
    Режим смешивания : DVD-Video
    Продолжительность : 22 м.
    Вид битрейта : Постоянный
    Битрейт : 384 Кбит/сек
    Каналы : 6 каналов
    Расположение каналов : Front: L C R, Side: L R, LFE
    Частота : 48, 0 КГц
    Частота кадров : 31, 250 кадров/сек (1536 spf)
    Метод сжатия : С потерями
    Задержка видео : -416 мс.
    Размер потока : 62, 0 Мбайт (6%)
    Аудио #2
    Идентификатор : 189 (0xBD)-129 (0x81)
    Формат : AC-3
    Формат/Информация : Audio Coding 3
    Расширение режима : CM (complete main)
    Параметр Endianness формата : Big
    Режим смешивания : DVD-Video
    Продолжительность : 22 м.
    Вид битрейта : Постоянный
    Битрейт : 384 Кбит/сек
    Каналы : 6 каналов
    Расположение каналов : Front: L C R, Side: L R, LFE
    Частота : 48, 0 КГц
    Частота кадров : 31, 250 кадров/сек (1536 spf)
    Метод сжатия : С потерями
    Задержка видео : -416 мс.
    Размер потока : 62, 0 Мбайт (6%)
    Аудио #3
    Идентификатор : 189 (0xBD)-130 (0x82)
    Формат : AC-3
    Формат/Информация : Audio Coding 3
    Расширение режима : CM (complete main)
    Параметр Endianness формата : Big
    Режим смешивания : DVD-Video
    Продолжительность : 22 м.
    Вид битрейта : Постоянный
    Битрейт : 384 Кбит/сек
    Каналы : 6 каналов
    Расположение каналов : Front: L C R, Side: L R, LFE
    Частота : 48, 0 КГц
    Частота кадров : 31, 250 кадров/сек (1536 spf)
    Метод сжатия : С потерями
    Задержка видео : -416 мс.
    Размер потока : 62, 0 Мбайт (6%)
    Текст #1
    Идентификатор : 189 (0xBD)-32 (0x20)
    Формат : RLE
    Формат/Информация : Run-length encoding
    Режим смешивания : DVD-Video
    Текст #2
    Идентификатор : 189 (0xBD)-33 (0x21)
    Формат : RLE
    Формат/Информация : Run-length encoding
    Режим смешивания : DVD-Video
    Текст #3
    Идентификатор : 189 (0xBD)-34 (0x22)
    Формат : RLE
    Формат/Информация : Run-length encoding
    Режим смешивания : DVD-Video
    Текст #4
    Идентификатор : 189 (0xBD)-35 (0x23)
    Формат : RLE
    Формат/Информация : Run-length encoding
    Режим смешивания : DVD-Video
    Текст #5
    Идентификатор : 189 (0xBD)-36 (0x24)
    Формат : RLE
    Формат/Информация : Run-length encoding
    Режим смешивания : DVD-Video
    Текст #6
    Идентификатор : 189 (0xBD)-37 (0x25)
    Формат : RLE
    Формат/Информация : Run-length encoding
    Режим смешивания : DVD-Video
    Текст #7
    Идентификатор : 189 (0xBD)-38 (0x26)
    Формат : RLE
    Формат/Информация : Run-length encoding
    Режим смешивания : DVD-Video

    Скриншоты меню


    Скриншоты фильма


    Скриншоты доп. материалов


    Релиз подготовил:
    Залил: voovaz

    Онлайн видео Бэтмен против Супермена: На заре справедливости


    Размер скачиваемого торрента: 7.19 GB (7723163648 Bytes)

    Бэтмен против Супермена: На заре справедливости/Batman v Superman: Dawn of Justice (2016) DVD9 от New-Team | Лицензия
    загрузка...
    Рейтинг →
     (голосов: 1, оценка 5/5, голосовать можно 1 раз )

    Другие торренты по теме:

  • Бэтмен против Дракулы / The Batman vs Dracula: The Animated Movie (2005) WEB-DLRip от Deadmauvlad | D | iTunes
  • Бэтмен против Робина / Batman vs. Robin (2015) HDRip | L
  • Бэтмен против Робина / Batman vs. Robin (2015) WEB-DL 1080p | L1
  • Бэтмен против Робина / Batman vs. Robin (2015) HDRip | L1
  • Бэтмен против Робина / Batman vs. Robin (2015) WEB-DLRip | Sub
  • Бэтмен против Супермена: На заре справедливости / Batman v Superman: Dawn of Justice (2016) DCPrip | 2K, Hi10P | Тизер-трейлер
  • Бэтмен против Робина / Batman vs. Robin (2015) BDRemux 1080p
  • Бэтмен против Супермена: На заре справедливости / Batman v Superman: Dawn of Justice (2016) WEBRip 1080p | Трейлер#3


    • Комментарии (0):

      Информация

      Информация

        Посетители, находящиеся в группе Гости, не могут оставлять комментарии в данной новости.

        ↓ Меню



        ↓ Опрос

        А Вы добавили сайт в закладки?
        Да
        Не


        Top 10 за месяц (Фильмы)