.
Авторизация | Регистрация
Хочешь лучшие торренты? Добавь свой email!
Добавить
» » В твоё отсутствие / En tu ausencia (2008) WEBRip 1080p | L1 | Directors Cut скачать торрент бесплатно




    В твоё отсутствие / En tu ausencia (2008) WEBRip 1080p | L1 | Directors Cut скачать торрент бесплатно

    Опубликовал: Админ | Дата: 25-07-2016, 05:00 | Просмотров: 103



    Детально о кино
    Русское название: В твоё отсутствие/В твое отсутствие
    Русское название в мировом прокате: En tu ausencia/In Your Absence
    Создали в: 2008
    Категория жанра: драма
    Главный режиссер: Иван Ноэль

    Актеры
    Франсиско Альфонсин, Педро Салидо Саборидо, Гонсало Санчес Салас, Анабель Асуар, Анна Тутор, Антонио Х. Атьенса Санчес, Асенсио Салас Суарес, Хуанхо Гальярдо, Луис Варгас Гомес, Луис Валье Ромеро

    Сюжет фильма

    Тринадцатилетний Пабло — тихий сирота с довольно тёмным прошлым. Его единственная приятельница — Юлия, бесстыжая пятнадцатилетняя девушка, пытающаяся дать Пабло несколько жизненных уроков. Однажды на тихой дороге недалеко от деревни Пабло встречает Пако — странного мужчину, у которого сломался автомобиль...

    Создали в: Канада, Испания/Iv?n Noel Productions, Tiny Sumo Entertainment
    Время просмотра: 01: 44: 31
    Тип перевода: любительское (одноголосое закадровое)Вячеслав Прошин
    Перевод текста: Анатолий Горский
    Файл
    Качество фильма: WEBRip 1080p
    Тип видео: MKV
    Информация о видео: MPEG-4 AVC, 1920x1080 (16: 9), 23.976 fps, 2316 kbps, 0.047 bit/pixel
    Информация о звуке #1: русский, AC3 2.0, 48 kHz, 192 kbps
    Информация о звуке #2: испанский, AC3 2.0, 44.1 kHz, 192 kbps
    MediaInfo
    Формат : Matroska
    Версия формата : Version 4/Version 2
    Размер файла : 2, 01 Гбайт
    Продолжительность : 1 ч. 44 м.
    Общий поток : 2754 Кбит/сек
    Дата кодирования : UTC 2016-07-24 12: 17: 42
    Программа кодирования : mkvmerge v7.9.0 (;Birds;) 64bit
    Библиотека кодирования : libebml v1.3.1 + libmatroska v1.4.2
    Видео
    Идентификатор : 1
    Формат : AVC
    Формат/Информация : Advanced Video Codec
    Профиль формата : High@L4
    Параметр CABAC формата : Да
    Параметр ReFrames формата : 3 кадра
    Идентификатор кодека : V_MPEG4/ISO/AVC
    Продолжительность : 1 ч. 44 м.
    Битрейт : 2316 Кбит/сек
    Ширина : 1920 пикселей
    Высота : 1080 пикселей
    Соотношение сторон : 16: 9
    Режим частоты кадров : Постоянный
    Частота кадров : 23, 976 кадра/сек
    Цветовое пространство : YUV
    Субдискретизация насыщенности : 4: 2: 0
    Битовая глубина : 8 бит
    Тип развёртки : Прогрессивная
    Бит/(Пиксели*Кадры) : 0.047
    Размер потока : 1, 69 Гбайт (84%)
    Default : Да
    Forced : Нет
    Цветовой диапазон : Limited
    Основные цвета : BT.709
    Характеристики трансфера : BT.709
    Коэффициенты матрицы : BT.709
    Аудио #1
    Идентификатор : 2
    Формат : AC-3
    Формат/Информация : Audio Coding 3
    Расширение режима : CM (complete main)
    Параметр Endianness формата : Big
    Идентификатор кодека : A_AC3
    Продолжительность : 1 ч. 44 м.
    Вид битрейта : Постоянный
    Битрейт : 192 Кбит/сек
    Каналы : 2 канала
    Расположение каналов : Front: L R
    Частота : 48, 0 КГц
    Метод сжатия : С потерями
    Размер потока : 144 Мбайт (7%)
    Язык : Russian
    Default : Да
    Forced : Нет
    Аудио #2
    Идентификатор : 3
    Формат : AC-3
    Формат/Информация : Audio Coding 3
    Расширение режима : CM (complete main)
    Параметр Endianness формата : Big
    Идентификатор кодека : A_AC3
    Продолжительность : 1 ч. 44 м.
    Вид битрейта : Постоянный
    Битрейт : 192 Кбит/сек
    Каналы : 2 канала
    Расположение каналов : Front: L R
    Частота : 44, 1 КГц
    Метод сжатия : С потерями
    Размер потока : 144 Мбайт (7%)
    Язык : Spanish
    Default : Нет
    Forced : Нет
    Скриншоты

    Залил: makkaronni

    Онлайн видео В твоё отсутствие


    Размер скачиваемого торрента: 2.01 GB (2159375742 Bytes)

    В твоё отсутствие/En tu ausencia (2008) WEBRip 1080p | L1 | Directors Cut
    загрузка...
    Рейтинг →
     (голосов: 1, оценка 3/5, голосовать можно 1 раз )

    Другие торренты по теме:

  • Твоё имя / Kimi no Na wa (2016) DVDScr | LE-Production
  • Твоё имя / Kimi no Na wa (2016) WEBRip 720p | DeadLine Studio
  • VA - Самый Реальный Бит В Твоё Авто (2017) MP3
  • Твоё имя / Kimi no na wa (2016) BDRip 1080p | P, L2


    • Комментарии (0):

      Информация

      Информация

        Посетители, находящиеся в группе Гости, не могут оставлять комментарии в данной новости.

        ↓ Меню



        ↓ Опрос

        А Вы добавили сайт в закладки?
        Да
        Не


        Top 10 за месяц (Фильмы)