.
Авторизация | Регистрация
Хочешь лучшие торренты? Добавь свой email!
Добавить
» » Космический охотник: Приключения в запретной зоне / Spacehunter: Adventures in the Forbidden Zone (1983) WEB-DL 720p | P, A скачать торрент бесплатно




    Космический охотник: Приключения в запретной зоне / Spacehunter: Adventures in the Forbidden Zone (1983) WEB-DL 720p | P, A скачать торрент бесплатно

    Опубликовал: Админ | Дата: 25-07-2016, 05:00 | Просмотров: 94



    Детально о кино
    Русское название: Космический охотник: Приключения в запретной зоне
    Русское название в мировом прокате: Spacehunter: Adventures in the Forbidden Zone
    Создали в: 1983
    Категория жанра: фантастика, приключения
    Главный режиссер: Лэмонт Джонсон

    Актеры
    Питер Штраусс, Молли Рингуолд, Эрни Хадсон, Андреа Марковиччи, Майкл Айронсайд, Бисон Кэрролл, Хрант Альянак, Дебора Прэтт, Алейса Ширли, Кали Тимминс

    Сюжет фильма

    Отдаленное будущее. Пассажирский космолайнер терпит крушение. Погибают все, кроме трех девушек, которые за минуту до взрыва успевают покинуть обреченный корабль на спасательном челноке. Следуя заложенной в него программе, челнок самостоятельно подыскивает планету для высадки. Этой планетой становится Терра-11, атмосфера которой схожа с земной. Из сводки новостей космический охотник Вулф узнает о крушении корабля и о высадке выживших пассажирок.
    В результате анализа запрошенной информации оказывается, что в течение долгих лет её население было охвачено чумой. Медицинская экспедиция, отправленная на планету, не смогла справиться с разбушевавшейся болезнью и Терре-11 был присвоен статус запретной зоны. Вулф сомневается, стоит ли рисковать головой и лететь на зачумленную планету, но за спасение девушек назначено огромное вознаграждение…

    Снималось в: Канада, США
    Киностудия: Columbia Pictures Corporation, Delphi I Productions, Zone Productions
    Время просмотра: 01: 29: 50
    Перевод текста: Профессиональный (многоголосый, закадровый) ТВ-3 + Профессиональный (многоголосый, закадровый) + Авторский (одноголосый, закадровый) Ю.Живов
    Файл
    Тип видео: Matroska
    Информация о видео: 1278x720 at 23.976 fps, MPEG-4 AVC, ~4200 kbps avg
    Информация о звуке#1: Russian: 48 kHz, AC3 Dolby Digital, 2/0 (L, R) ch, ~192.00 kbps avg|Многоголосый закадровый, ТВ-3|
    Информация о звуке#2: Russian: 48 kHz, AC3 Dolby Digital, 2/0 (L, R) ch, ~192.00 kbps avg|Многоголосый закадровый|
    Информация о звуке#3: Russian: 48 kHz, AC3 Dolby Digital, 2/0 (L, R) ch, ~192.00 kbps avg|Авторский, Ю.Живов|
    Информация о звуке#4: English: 48 kHz, AC3 Dolby Digital, 4/0 (L, C, R, r) ch, ~448.00 kbps avg|DVD|
    Информация о звуке#5: English: 48 kHz, AAC, 2/0 (L, R) ch, ~160.00 kbps avg|iTunes|
    Субтитры: Russian (Eazin), English
    ***Сохранены и подписаны оригинальные главы.
    ***Релиз - Pigy.
    MI
    Общее
    Уникальный идентификатор : 229233834031868856895650870190652627198 (0xAC74D49D25885CDF9F02BE58865998FE)
    Полное имя : Spacehunter Adventures in the Forbidden Zone 1983 WEB-DL 720p.mkv
    Формат : Matroska
    Версия формата : Version 4/Version 2
    Размер файла : 3, 41 Гбайт
    Продолжительность : 1 ч. 29 м.
    Общий поток : 5438 Кбит/сек
    Дата кодирования : UTC 2015-12-20 18: 06: 04
    Программа кодирования : mkvmerge v6.1.0 (;Old Devil;) built on Mar 2 2013 14: 32: 37
    Библиотека кодирования : libebml v1.3.0 + libmatroska v1.4.0
    Видео
    Идентификатор : 1
    Формат : AVC
    Формат/Информация : Advanced Video Codec
    Профиль формата : High@L3.1
    Параметр CABAC формата : Нет
    Параметр ReFrames формата : 2 кадра
    Идентификатор кодека : V_MPEG4/ISO/AVC
    Продолжительность : 1 ч. 29 м.
    Ширина : 1278 пикселей
    Высота : 720 пикселей
    Соотношение сторон : 16: 9
    Режим частоты кадров : Постоянный
    Частота кадров : 23, 976 кадра/сек
    Цветовое пространство : YUV
    Субдискретизация насыщенности : 4: 2: 0
    Битовая глубина : 8 бит
    Тип развёртки : Прогрессивная
    Язык : English
    Default : Да
    Forced : Нет
    Цветовой диапазон : Limited
    Основные цвета : BT.709
    Характеристики трансфера : BT.709
    Коэффициенты матрицы : BT.709
    Аудио #1
    Идентификатор : 2
    Формат : AC-3
    Формат/Информация : Audio Coding 3
    Расширение режима : CM (complete main)
    Параметр Endianness формата : Big
    Идентификатор кодека : A_AC3
    Продолжительность : 1 ч. 29 м.
    Вид битрейта : Постоянный
    Битрейт : 192 Кбит/сек
    Каналы : 2 канала
    Расположение каналов : Front: L R
    Частота : 48, 0 КГц
    Метод сжатия : С потерями
    Размер потока : 123 Мбайт (4%)
    Заголовок : MVO ТВ3
    Язык : Russian
    Default : Да
    Forced : Нет
    Аудио #2
    Идентификатор : 3
    Формат : AC-3
    Формат/Информация : Audio Coding 3
    Расширение режима : CM (complete main)
    Параметр Endianness формата : Big
    Идентификатор кодека : A_AC3
    Продолжительность : 1 ч. 29 м.
    Вид битрейта : Постоянный
    Битрейт : 192 Кбит/сек
    Каналы : 2 канала
    Расположение каналов : Front: L R
    Частота : 48, 0 КГц
    Метод сжатия : С потерями
    Размер потока : 123 Мбайт (4%)
    Заголовок : MVO
    Язык : Russian
    Default : Нет
    Forced : Нет
    Аудио #3
    Идентификатор : 4
    Формат : AC-3
    Формат/Информация : Audio Coding 3
    Расширение режима : CM (complete main)
    Параметр Endianness формата : Big
    Идентификатор кодека : A_AC3
    Продолжительность : 1 ч. 29 м.
    Вид битрейта : Постоянный
    Битрейт : 192 Кбит/сек
    Каналы : 2 канала
    Расположение каналов : Front: L R
    Частота : 48, 0 КГц
    Метод сжатия : С потерями
    Размер потока : 123 Мбайт (4%)
    Заголовок : AVO Живов
    Язык : Russian
    Default : Нет
    Forced : Нет
    Аудио #4
    Идентификатор : 5
    Формат : AC-3
    Формат/Информация : Audio Coding 3
    Расширение режима : CM (complete main)
    Параметр Endianness формата : Big
    Идентификатор кодека : A_AC3
    Продолжительность : 1 ч. 29 м.
    Вид битрейта : Постоянный
    Битрейт : 448 Кбит/сек
    Каналы : 4 канала
    Расположение каналов : Front: L C R, Back: C
    Частота : 48, 0 КГц
    Метод сжатия : С потерями
    Размер потока : 288 Мбайт (8%)
    Заголовок : оригинал DVD
    Язык : English
    Default : Нет
    Forced : Нет
    Аудио #5
    Идентификатор : 6
    Формат : AAC
    Формат/Информация : Advanced Audio Codec
    Профиль формата : LC
    Идентификатор кодека : A_AAC
    Продолжительность : 1 ч. 29 м.
    Каналы : 2 канала
    Расположение каналов : Front: L R
    Частота : 48, 0 КГц
    Метод сжатия : С потерями
    Заголовок : оригинал WEB-DL
    Язык : English
    Default : Нет
    Forced : Нет
    Текст #1
    Идентификатор : 7
    Формат : UTF-8
    Идентификатор кодека : S_TEXT/UTF8
    Идентификатор кодека/Информация : UTF-8 Plain Text
    Язык : Russian
    Default : Нет
    Forced : Нет
    Текст #2
    Идентификатор : 8
    Формат : UTF-8
    Идентификатор кодека : S_TEXT/UTF8
    Идентификатор кодека/Информация : UTF-8 Plain Text
    Язык : English
    Default : Нет
    Forced : Нет
    Меню
    00: 00: 00.000 : en: START
    00: 04: 15.000 : en: NATIVES ARE RESTLESS
    00: 06: 02.000 : en: WOLFF CHALMERS
    00: 10: 06.000 : en: TERR 11 RESCUE MISSION
    00: 12: 51.000 : en: VISITORS
    00: 18: 40.000 : en: GRANDMAN PATTERSON
    00: 20: 22.000 : en: BEST MODEL EVER
    00: 21: 34.000 : en: SERUM DEPOT
    00: 23: 57.000 : en: NIKI THE TWISTER
    00: 27: 16.000 : en: THE CHEMIST
    00: 28: 14.000 : en: I DON;T EAT NO DOGS!
    00: 30: 35.000 : en: NEW FRIENDS
    00: 31: 50.000 : en: NIKI COMES CLEAN
    00: 34: 34.000 : en: SECTOR CHIEF WASHINGTON
    00: 44: 02.000 : en: MUTANTS!
    00: 47: 01.000 : en: OVERDOG
    00: 48: 42.000 : en: WET WILD
    00: 55: 36.000 : en: THE DEAL
    01: 01: 22.000 : en: CHILDREN...AREN;T THEY?
    01: 04: 07.000 : en: THE GRAVEYARD
    01: 06: 11.000 : en: LET THE GAMES BEGIN!
    01: 10: 34.000 : en: HITTING THE SLAVE PENS
    01: 11: 53.000 : en: CONSOLATION PRIZE
    01: 14: 16.000 : en: THE MAZE
    01: 17: 56.000 : en: THE FUSION TUBE
    01: 19: 37.000 : en: WOLFF VS. OVERDOG
    01: 22: 45.000 : en: GRAVEYARD DESTROYED
    01: 23: 32.000 : en: TRUST WORDS
    Скриншоты



    Онлайн видео Космический охотник: Приключения в запретной зоне


    Размер скачиваемого торрента: 3.41 GB (3664612882 Bytes)

    Космический охотник: Приключения в запретной зоне/Spacehunter: Adventures in the Forbidden Zone (1983) WEB-DL 720p | P, A
    загрузка...
    Рейтинг →
     (голосов: 1, оценка 5/5, голосовать можно 1 раз )

    Другие торренты по теме:

  • Космический охотник: Приключения в Запретной зоне / Spacehunter: Adventures in the Forbidden Zone (1983) VHSRip DVDRip | 3D-Video | HSBS скачать через торрент бесплатно
  • Космический охотник: Приключения в запретной зоне / Spacehunter: Adventures in the Forbidden Zone (1983) WEB-DL 720p | P, A
  • Космический охотник: Приключения в Запретной зоне / Spacehunter: Adventures in the Forbidden Zone (1983) BDRip от Koenig | P, A


    • Комментарии (0):

      Информация

      Информация

        Посетители, находящиеся в группе Гости, не могут оставлять комментарии в данной новости.

        ↓ Меню



        ↓ Опрос

        А Вы добавили сайт в закладки?
        Да
        Не


        Top 10 за месяц (Фильмы)