.
Авторизация | Регистрация
Хочешь лучшие торренты? Добавь свой email!
Добавить
» » Несносные леди / Mothers Day (2016) BDRemux 1080p от ExKinoRay | iTunes скачать торрент бесплатно




    Несносные леди / Mothers Day (2016) BDRemux 1080p от ExKinoRay | iTunes скачать торрент бесплатно

    Опубликовал: Админ | Дата: 24-07-2016, 13:14 | Просмотров: 85



    Детально о кино
    Русское название: Несносные леди
    Русское название в мировом прокате: Mother;s Day
    Создали в: 2016
    Категория жанра: драма, комедия
    Главный режиссер: Гэрри Маршалл

    Актеры
    Дженнифер Энистон, Джулия Робертс, Кейт Хадсон, Джейсон Судейкис, Тимоти Олифант, Шэй Митчелл, Калеб Браун, Брэндон Спинк, Сэм Маршалл, Сиена ЛаГамбина

    Сюжет фильма

    Фитнес и шопинг, капризные предки и непослушные дети, завистливые подружки и надоевшие бывшие — милые составляющие настоящего женского счастья. А также мужского, если ты — отец-одиночка. И неважно, где и как сведет вас жизнь, если ты встретишь настоящую любовь. Главное — не сдаваться! Ведь судьба — это большой супермаркет, а не магазин на диване.

    Снималось в: США
    Киностудия: Aperture Media Partners, Beatnik Films, Capacity Pictures, Gulfstream Pictures
    Время просмотра: 01: 58: 50
    Перевод текста: Дублированный | iTunes
    Файл
    Кодек для видео: MPEG-4
    Качество фильма: BDRemux 1080p
    Информация о видео: 1920x1080, 32.2 Mbit/s, 23.976 fps
    Информация о звуке:
    Информация о звуке #01: 48 kHz, AC3, 5.1, 384 Kbps | Дублированный, iTunes |
    Информация о звуке #02: 48 kHz, DTS-HD MA, 5.1, 3613 kbps | Оригинал |
    Субтитры: Английские
    MI
    General
    Unique ID : 214397129186006121459571444014965753711 (0xA14B629680DB26B7807BE6AFC0FA876F)
    Complete name : G: VideoMothers.Day.2016.BDREMUX.1080p.ExKinoRay.mkv
    Format : Matroska
    Format version : Version 4/Version 2
    File size : 30.0 GiB
    Duration : 1h 58mn
    Overall bit rate mode : Variable
    Overall bit rate : 36.2 Mbps
    Movie name : Mothers.Day.2016.BDREMUX.1080p.ExKinoRay
    Encoded date : UTC 2016-07-23 10: 57: 29
    Writing application : mkvmerge v8.3.0 (;Over the Horizon;) 64bit
    Writing library : libebml v1.3.1 + libmatroska v1.4.2
    Video
    ID : 1
    Format : AVC
    Format/Info : Advanced Video Codec
    Format profile : High@L4.1
    Format settings, CABAC : Yes
    Format settings, ReFrames : 4 frames
    Codec ID : V_MPEG4/ISO/AVC
    Duration : 1h 58mn
    Bit rate mode : Variable
    Bit rate : 32.2 Mbps
    Maximum bit rate : 35.0 Mbps
    Width : 1 920 pixels
    Height : 1 080 pixels
    Display aspect ratio : 16: 9
    Frame rate mode : Constant
    Frame rate : 23.976 (24000/1001) fps
    Color space : YUV
    Chroma subsampling : 4: 2: 0
    Bit depth : 8 bits
    Scan type : Progressive
    Bits/(Pixel*Frame) : 0.647
    Stream size : 26.7 GiB (89%)
    Language : English
    Default : Yes
    Forced : No
    Audio #1
    ID : 2
    Format : AC-3
    Format/Info : Audio Coding 3
    Mode extension : CM (complete main)
    Format settings, Endianness : Big
    Codec ID : A_AC3
    Duration : 1h 58mn
    Bit rate mode : Constant
    Bit rate : 384 Kbps
    Channel(s) : 6 channels
    Channel positions : Front: L C R, Side: L R, LFE
    Sampling rate : 48.0 KHz
    Frame rate : 31.250 fps (1536 spf)
    Compression mode : Lossy
    Stream size : 326 MiB (1%)
    Title : DUB iTunes
    Language : Russian
    Default : Yes
    Forced : No
    Audio #2
    ID : 3
    Format : DTS
    Format/Info : Digital Theater Systems
    Format profile : MA/Core
    Mode : 16
    Format settings, Endianness : Big
    Codec ID : A_DTS
    Duration : 1h 58mn
    Bit rate mode : Variable/Constant
    Bit rate : 3 613 Kbps/1 509 Kbps
    Channel(s) : 6 channels
    Channel positions : Front: L C R, Side: L R, LFE
    Sampling rate : 48.0 KHz
    Frame rate : 93.750 fps (512 spf)
    Bit depth : 24 bits
    Compression mode : Lossless/Lossy
    Stream size : 3.00 GiB (10%)
    Title : Original
    Language : English
    Default : No
    Forced : No
    Text #1
    ID : 4
    Format : UTF-8
    Codec ID : S_TEXT/UTF8
    Codec ID/Info : UTF-8 Plain Text
    Duration : 1h 57mn
    Bit rate : 85 bps
    Count of elements : 2467
    Stream size : 74.1 KiB (0%)
    Title : Full
    Language : English
    Default : No
    Forced : No
    Text #2
    ID : 5
    Format : UTF-8
    Codec ID : S_TEXT/UTF8
    Codec ID/Info : UTF-8 Plain Text
    Duration : 1h 58mn
    Bit rate : 91 bps
    Count of elements : 2621
    Stream size : 79.1 KiB (0%)
    Title : SDH
    Language : English
    Default : No
    Forced : No
    Menu
    00: 00: 00.000 : en: Chapter 1
    00: 05: 50.891 : en: Chapter 2
    00: 08: 50.111 : en: Chapter 3
    00: 15: 32.389 : en: Chapter 4
    00: 22: 11.413 : en: Chapter 5
    00: 28: 43.721 : en: Chapter 6
    00: 35: 48.646 : en: Chapter 7
    00: 43: 12.297 : en: Chapter 8
    00: 48: 07.717 : en: Chapter 9
    00: 55: 35.248 : en: Chapter 10
    00: 59: 36.155 : en: Chapter 11
    01: 05: 33.179 : en: Chapter 12
    01: 10: 23.636 : en: Chapter 13
    01: 18: 21.697 : en: Chapter 14
    01: 23: 46.979 : en: Chapter 15
    01: 29: 07.591 : en: Chapter 16
    01: 34: 27.828 : en: Chapter 17
    01: 38: 48.421 : en: Chapter 18
    01: 44: 50.324 : en: Chapter 19
    01: 49: 32.064 : en: Chapter 20
    Скриншоты

    Релиз подготовил: Автор релиза:

    Онлайн видео Несносные леди


    Размер скачиваемого торрента: 30.02 GB (32236564113 Bytes)

    Несносные леди/Mothers Day (2016) BDRemux 1080p от ExKinoRay | iTunes
    загрузка...
    Рейтинг →
     (голосов: 1, оценка 3/5, голосовать можно 1 раз )

    Другие торренты по теме:

  • Несносные леди / Mothers Day (2016) WEB-DLRip | iTunes
  • Несносные леди / Mothers Day (2016) WEB-DLRip от torrentfilm | iTunes
  • Несносные леди / Mothers Day (2016) WEB-DLRip от Scarabey | iTunes
  • Несносные леди / Mothers Day (2016) HDRip от AleksSin | iTunes
  • Несносные леди / Mothers Day (2016) BDRip-AVC от New-Team | iTunes
  • Несносные леди / Mothers Day (2016) BDRip-AVC от New-Team | iTunes
  • Несносные леди / Mothers Day (2016) BDRip от ExKinoRay | iTunes
  • Несносные леди / Mothers Day (2016) BDRip 1080p от ExKinoRay | iTunes


    • Комментарии (0):

      Информация

      Информация

        Посетители, находящиеся в группе Гости, не могут оставлять комментарии в данной новости.

        ↓ Меню



        ↓ Опрос

        А Вы добавили сайт в закладки?
        Да
        Не


        Top 10 за месяц (Фильмы)