.
Авторизация | Регистрация
Хочешь лучшие торренты? Добавь свой email!
Добавить
» » Репортерша / Whiskey Tango Foxtrot (2016) BDRip 1080p от ExKinoRay | iTunes скачать торрент бесплатно




    Репортерша / Whiskey Tango Foxtrot (2016) BDRip 1080p от ExKinoRay | iTunes скачать торрент бесплатно

    Опубликовал: Админ | Дата: 24-07-2016, 05:00 | Просмотров: 60



    Детально о кино
    Русское название: Репортерша
    Русское название в мировом прокате: Whiskey Tango Foxtrot
    Создали в: 2016
    Категория жанра: Драма, комедия, военный, биография
    Главный режиссер: Гленн Фикарра, Джон Рекуа

    Актеры
    Тина Фей, Марго Робби, Мартин Фриман, Альфред Молина, Кристофер Эбботт, Билли Боб Торнтон, Николас Браун, Стивен Пикок, Шейла Ванд, Эван Йоникит

    Сюжет фильма

    Фильм расскажет о деятельности журналистки в качестве репортёра в Афганистане и Пакистане, после прибытия туда в 2002 году.

    Снималось в: США
    Киностудия: Broadway Video Little Stranger, Paramount Pictures
    Время просмотра: 01: 51: 48
    Перевод текста: Дублированный | iTunes
    Файл
    Кодек для видео: x264
    Качество фильма: BDRip 1080p
    Информация о видео: 1920x1080, 10.9 Mbit/s, 23.976 fps
    Информация о звуке:
    Информация о звуке #01: 48 kHz, AC3, 5.1, 384 Kbps | Дублированный, iTunes |
    Информация о звуке #02: 48 kHz, DTS, 5.1, 1510 kbps | Оригинал |
    Субтитры: Русские, английские
    MI
    General
    Unique ID : 220990870233785830933774170053392162109 (0xA6414B1F02E19D24BE9C147407635D3D)
    Complete name : G: VideoWhiskey.Tango.Foxtrot.2016.D.BDRip.1080p.ExKinoRay.mkv
    Format : Matroska
    Format version : Version 4/Version 2
    File size : 9.98 GiB
    Duration : 1h 51mn
    Overall bit rate : 12.8 Mbps
    Movie name : Whiskey.Tango.Foxtrot.2016.D.BDRip.1080p.ExKinoRay
    Encoded date : UTC 2016-07-23 18: 43: 26
    Writing application : mkvmerge v8.3.0 (;Over the Horizon;) 64bit
    Writing library : libebml v1.3.1 + libmatroska v1.4.2
    Video
    ID : 1
    Format : AVC
    Format/Info : Advanced Video Codec
    Format profile : High@L4.1
    Format settings, CABAC : Yes
    Format settings, ReFrames : 4 frames
    Codec ID : V_MPEG4/ISO/AVC
    Duration : 1h 51mn
    Bit rate : 10.9 Mbps
    Width : 1 920 pixels
    Height : 1 080 pixels
    Display aspect ratio : 16: 9
    Frame rate mode : Constant
    Frame rate : 23.976 (24000/1001) fps
    Color space : YUV
    Chroma subsampling : 4: 2: 0
    Bit depth : 8 bits
    Scan type : Progressive
    Bits/(Pixel*Frame) : 0.219
    Stream size : 8.50 GiB (85%)
    Writing library : x264 core 142 r2431+42 c69a006 tMod 8-bit@all X86_64
    Encoding settings : cabac=1/ref=4/deblock=1: -3: -3/analyse=0x3: 0x133/me=umh/subme=11/psy=1/fade_compensate=0.00/psy_rd=0.90: 0.00/mixed_ref=1/me_range=32/chroma_me=1/trellis=2/8x8dct=1/cqm=0/deadzone=21, 11/fast_pskip=0/chroma_qp_offset=-2/threads=12/lookahead_threads=2/sliced_threads=0/nr=0/decimate=0/interlaced=0/bluray_compat=0/constrained_intra=0/fgo=0/bframes=8/b_pyramid=2/b_adapt=2/b_bias=0/direct=3/weightb=1/open_gop=0/weightp=2/keyint=240/keyint_min=23/scenecut=40/intra_refresh=0/rc_lookahead=60/rc=2pass/mbtree=0/bitrate=10900/ratetol=1.0/qcomp=0.60/qpmin=0: 0: 0/qpmax=69: 69: 69/qpstep=4/cplxblur=20.0/qblur=0.5/vbv_maxrate=40000/vbv_bufsize=30000/nal_hrd=none/filler=0/ip_ratio=1.40/pb_ratio=1.30/aq=1: 0.90/aq-sensitivity=10.00/aq-factor=1.00: 1.00: 1.00/aq2=0/aq3=0
    Language : English
    Default : Yes
    Forced : No
    Audio #1
    ID : 2
    Format : AC-3
    Format/Info : Audio Coding 3
    Mode extension : CM (complete main)
    Format settings, Endianness : Big
    Codec ID : A_AC3
    Duration : 1h 51mn
    Bit rate mode : Constant
    Bit rate : 384 Kbps
    Channel(s) : 6 channels
    Channel positions : Front: L C R, Side: L R, LFE
    Sampling rate : 48.0 KHz
    Frame rate : 31.250 fps (1536 spf)
    Compression mode : Lossy
    Delay relative to video : 800ms
    Stream size : 307 MiB (3%)
    Title : DUB iTunes
    Language : Russian
    Default : Yes
    Forced : No
    Audio #2
    ID : 3
    Format : DTS
    Format/Info : Digital Theater Systems
    Mode : 16
    Format settings, Endianness : Big
    Codec ID : A_DTS
    Duration : 1h 51mn
    Bit rate mode : Constant
    Bit rate : 1 509 Kbps
    Channel(s) : 6 channels
    Channel positions : Front: L C R, Side: L R, LFE
    Sampling rate : 48.0 KHz
    Frame rate : 93.750 fps (512 spf)
    Bit depth : 24 bits
    Compression mode : Lossy
    Stream size : 1.18 GiB (12%)
    Title : Original
    Language : English
    Default : No
    Forced : No
    Text #1
    ID : 4
    Format : UTF-8
    Codec ID : S_TEXT/UTF8
    Codec ID/Info : UTF-8 Plain Text
    Duration : 1h 45mn
    Bit rate : 104 bps
    Count of elements : 1595
    Stream size : 81.2 KiB (0%)
    Title : Full
    Language : Russian
    Default : No
    Forced : No
    Text #2
    ID : 5
    Format : UTF-8
    Codec ID : S_TEXT/UTF8
    Codec ID/Info : UTF-8 Plain Text
    Duration : 1h 43mn
    Bit rate : 67 bps
    Count of elements : 1492
    Stream size : 51.1 KiB (0%)
    Title : Full
    Language : English
    Default : No
    Forced : No
    Text #3
    ID : 6
    Format : UTF-8
    Codec ID : S_TEXT/UTF8
    Codec ID/Info : UTF-8 Plain Text
    Duration : 1h 44mn
    Bit rate : 75 bps
    Count of elements : 1859
    Stream size : 57.8 KiB (0%)
    Title : SDH
    Language : English
    Default : No
    Forced : No
    Menu
    00: 00: 00.000 : en: Chapter 01
    00: 07: 46.466 : en: Chapter 02
    00: 13: 47.910 : en: Chapter 03
    00: 23: 38.834 : en: Chapter 04
    00: 30: 28.660 : en: Chapter 05
    00: 37: 27.036 : en: Chapter 06
    00: 45: 36.775 : en: Chapter 07
    00: 55: 40.587 : en: Chapter 08
    01: 05: 02.106 : en: Chapter 09
    01: 12: 14.455 : en: Chapter 10
    01: 17: 50.332 : en: Chapter 11
    01: 24: 56.007 : en: Chapter 12
    01: 34: 04.972 : en: Chapter 13
    01: 39: 50.651 : en: Chapter 14
    01: 51: 48.118 : en: Chapter 15
    Скриншоты

    Релиз подготовил: Автор релиза:

    Онлайн видео Репортерша


    Размер скачиваемого торрента: 9.98 GB (10718217154 Bytes)

    Репортерша/Whiskey Tango Foxtrot (2016) BDRip 1080p от ExKinoRay | iTunes
    загрузка...
    Рейтинг →
     (голосов: 1, оценка 3/5, голосовать можно 1 раз )

    Другие торренты по теме:

  • Репортерша / Whiskey Tango Foxtrot (2016) BDRemux 1080p | Tunes
  • Репортерша / Whiskey Tango Foxtrot (2016) HDRip от Scarabey | iTunes
  • Репортерша / Whiskey Tango Foxtrot (2016) HDRip от MegaPeer | Лицензия
  • Репортерша / Whiskey Tango Foxtrot (2016) BDRip 720p от ExKinoRay | Лицензия
  • Репортерша / Whiskey Tango Foxtrot (2016) BDRemux 1080p от ExKinoRay | Лицензия
  • Репортерша / Whiskey Tango Foxtrot (2016) BDRip-AVC от New-Team | Лицензия
  • Репортерша / Whiskey Tango Foxtrot (2016) BDRip от HQ-ViDEO
  • Репортерша / Whiskey Tango Foxtrot (2016) BDRip | А


    • Комментарии (0):

      Информация

      Информация

        Посетители, находящиеся в группе Гости, не могут оставлять комментарии в данной новости.

        ↓ Меню



        ↓ Опрос

        А Вы добавили сайт в закладки?
        Да
        Не


        Top 10 за месяц (Фильмы)