.
Авторизация | Регистрация
Хочешь лучшие торренты? Добавь свой email!
Добавить
» » 99 домов / 99 Homes (2014) BDRip 720p | L1 скачать торрент бесплатно




    99 домов / 99 Homes (2014) BDRip 720p | L1 скачать торрент бесплатно

    Опубликовал: Админ | Дата: 24-07-2016, 05:00 | Просмотров: 81



    Детально о кино
    Русское название: 99 домов
    Русское название в мировом прокате: 99 Homes
    Создали в: 2014
    Категория жанра: драма
    Главный режиссер: Рамин Бахрани

    Актеры
    Майкл Шеннон, Эндрю Гарфилд, Лора Дерн, Клэнси Браун, Тим Гини, Энн Махони, Хуан Гаспар, Николь Барре, Дж.Д. Эвермор, Ноа Ломакс

    Сюжет фильма

    Фильм расскажет про человека, теряющего свой дом по закладной. К счастью, ему удается устроиться на работу к риэлтору, забравшему его жилье. Очень скоро он добивается больших успехов на новом поприще и уже сам выселяет несчастных домовладельцев. Однако по мере того, как финансовые проблемы перестают его беспокоить, страдания ему начинает доставлять его совесть.

    Снималось в: США
    Киностудия: Noruz Productions
    Время просмотра: 01: 52: 14
    Перевод текста: Любительский одноголосный, закадровый VANO
    Файл
    Кодек для видео: H.264
    Качество фильма: BDRip 720p
    Информация о видео: AVC, 1280x536 (2.40: 1), 23.976 fps ~ 4065 Kbps
    Информация о звуке:
    AC3, 48 KHz 2 ch ~ 192 Kb/s (русский)
    DTS, 48 KHz 6 ch ~ 1509 Kb/s(английский)
    Субтитры: английские
    MI:

    Общее
    Уникальный идентификатор : 234882093461764623092812683130958156419 (0xB0B4A54DE52FF521BB3EC620EB069283)
    Полное имя : Q: TorF99.Homes.2014.720p.mkv
    Формат : Matroska
    Версия формата : Version 2
    Размер файла : 4, 52 Гбайт
    Продолжительность : 1 ч. 52 м.
    Общий поток : 5768 Кбит/сек
    Дата кодирования : UTC 2016-07-23 12: 59: 06
    Программа кодирования : mkvmerge v5.4.0 (;Piper;) built on Mar 10 2012 13: 34: 39
    Библиотека кодирования : libebml v1.2.3 + libmatroska v1.3.0
    Видео
    Идентификатор : 1
    Формат : AVC
    Формат/Информация : Advanced Video Codec
    Профиль формата : High@L4.1
    Параметр CABAC формата : Да
    Параметр ReFrames формата : 5 кадров
    Идентификатор кодека : V_MPEG4/ISO/AVC
    Продолжительность : 1 ч. 52 м.
    Битрейт : 4065 Кбит/сек
    Ширина : 1280 пикселей
    Высота : 536 пикселей
    Соотношение сторон : 2, 40: 1
    Частота кадров : 23, 976 кадра/сек
    Цветовое пространство : YUV
    Субдискретизация насыщенности : 4: 2: 0
    Битовая глубина : 8 бит
    Тип развёртки : Прогрессивная
    Бит/(Пиксели*Кадры) : 0.247
    Размер потока : 3, 10 Гбайт (69%)
    Заголовок : 99
    Библиотека кодирования : x264 core 148 r2638 7599210
    Настройки программы : cabac=1/ref=5/deblock=1: -3: -3/analyse=0x3: 0x113/me=umh/subme=8/psy=1/psy_rd=1.00: 0.00/mixed_ref=1/me_range=16/chroma_me=1/trellis=1/8x8dct=1/cqm=0/deadzone=21, 11/fast_pskip=1/chroma_qp_offset=-2/threads=12/lookahead_threads=2/sliced_threads=0/nr=0/decimate=1/interlaced=0/bluray_compat=0/constrained_intra=0/bframes=3/b_pyramid=2/b_adapt=2/b_bias=0/direct=3/weightb=1/open_gop=0/weightp=2/keyint=240/keyint_min=24/scenecut=40/intra_refresh=0/rc_lookahead=50/rc=2pass/mbtree=1/bitrate=4065/ratetol=1.0/qcomp=0.60/qpmin=0/qpmax=69/qpstep=4/cplxblur=20.0/qblur=0.5/ip_ratio=1.40/aq=1: 1.00
    Язык : English
    Default : Да
    Forced : Нет
    DURATION : 01: 52: 14.395000000
    NUMBER_OF_FRAMES : 161464
    NUMBER_OF_BYTES : 3421591994
    _STATISTICS_WRITING_APP : no_variable_data
    _STATISTICS_WRITING_DATE_UTC : 1970-01-01 00: 00: 00
    _STATISTICS_TAGS : BPS DURATION NUMBER_OF_FRAMES NUMBER_OF_BYTES
    Аудио #1
    Идентификатор : 2
    Формат : AC-3
    Формат/Информация : Audio Coding 3
    Расширение режима : CM (complete main)
    Идентификатор кодека : A_AC3
    Продолжительность : 1 ч. 52 м.
    Вид битрейта : Постоянный
    Битрейт : 192 Кбит/сек
    Каналы : 2 канала
    Расположение каналов : Front: L R
    Частота : 48, 0 КГц
    Битовая глубина : 16 бит
    Метод сжатия : С потерями
    Размер потока : 154 Мбайт (3%)
    Заголовок : L1
    Язык : Russian
    Default : Да
    Forced : Нет
    DURATION : 01: 52: 14.400000000
    NUMBER_OF_FRAMES : 631350
    NUMBER_OF_BYTES : 1270276200
    _STATISTICS_WRITING_APP : no_variable_data
    _STATISTICS_WRITING_DATE_UTC : 1970-01-01 00: 00: 00
    _STATISTICS_TAGS : BPS DURATION NUMBER_OF_FRAMES NUMBER_OF_BYTES
    Аудио #2
    Идентификатор : 3
    Формат : DTS
    Формат/Информация : Digital Theater Systems
    Идентификатор кодека : A_DTS
    Продолжительность : 1 ч. 52 м.
    Вид битрейта : Постоянный
    Битрейт : 1510 Кбит/сек
    Каналы : 6 каналов
    Расположение каналов : Front: L C R, Side: L R, LFE
    Частота : 48, 0 КГц
    Битовая глубина : 24 бит
    Метод сжатия : С потерями
    Размер потока : 1, 18 Гбайт (26%)
    Заголовок : DTS
    Язык : English
    Default : Нет
    Forced : Нет
    DURATION : 01: 45: 22.273000000
    NUMBER_OF_FRAMES : 1598
    NUMBER_OF_BYTES : 62741
    _STATISTICS_WRITING_APP : no_variable_data
    _STATISTICS_WRITING_DATE_UTC : 1970-01-01 00: 00: 00
    _STATISTICS_TAGS : BPS DURATION NUMBER_OF_FRAMES NUMBER_OF_BYTES
    Текст #1
    Идентификатор : 4
    Формат : UTF-8
    Идентификатор кодека : S_TEXT/UTF8
    Идентификатор кодека/Информация : UTF-8 Plain Text
    Язык : English
    Default : Нет
    Forced : Нет
    DURATION : 01: 45: 27.320000000
    NUMBER_OF_FRAMES : 1638
    NUMBER_OF_BYTES : 64434
    _STATISTICS_WRITING_APP : no_variable_data
    _STATISTICS_WRITING_DATE_UTC : 1970-01-01 00: 00: 00
    _STATISTICS_TAGS : BPS DURATION NUMBER_OF_FRAMES NUMBER_OF_BYTES
    Текст #2
    Идентификатор : 5
    Формат : UTF-8
    Идентификатор кодека : S_TEXT/UTF8
    Идентификатор кодека/Информация : UTF-8 Plain Text
    Заголовок : SDH
    Язык : English
    Default : Нет
    Forced : Нет
    Меню
    00: 00: 00.000 : en: 00: 00: 00.000
    00: 07: 46.966 : en: 00: 07: 46.966
    00: 19: 54.402 : en: 00: 19: 54.402
    00: 30: 57.981 : en: 00: 30: 57.981
    00: 44: 35.423 : en: 00: 44: 35.423
    00: 52: 02.119 : en: 00: 52: 02.119
    01: 03: 44.863 : en: 01: 03: 44.863
    01: 15: 35.030 : en: 01: 15: 35.030
    01: 22: 55.512 : en: 01: 22: 55.512
    01: 33: 38.238 : en: 01: 33: 38.238
    01: 40: 08.169 : en: 01: 40: 08.169
    01: 48: 20.202 : en: 01: 48: 20.202

    Семпл
    Скриншоты


    Онлайн видео 99 домов


    Размер скачиваемого торрента: 4.52 GB (4855735812 Bytes)

    99 домов/99 Homes (2014) BDRip 720p | L1
    загрузка...
    Рейтинг →
     (голосов: 1, оценка 4/5, голосовать можно 1 раз )

    Другие торренты по теме:

  • 99 домов / 99 Homes / 2015 / ЛО, СТ / WEBRip (1080p)


    • Комментарии (0):

      Информация

      Информация

        Посетители, находящиеся в группе Гости, не могут оставлять комментарии в данной новости.

        ↓ Меню



        ↓ Опрос

        А Вы добавили сайт в закладки?
        Да
        Не


        Top 10 за месяц (Фильмы)