.
Авторизация | Регистрация
Хочешь лучшие торренты? Добавь свой email!
Добавить
» » Река смерти / River of Death (1989) HDRip-AVC | P, A скачать торрент бесплатно




    Река смерти / River of Death (1989) HDRip-AVC | P, A скачать торрент бесплатно

    Опубликовал: Админ | Дата: 23-07-2016, 05:00 | Просмотров: 67



    Создали в: США, Breton Film Productions, Pathe Communications, Cannon International
    Категория жанра: Боевик, Приключения
    Главный режиссер: Стив Карвер
    Актеры: Майкл Дудикофф, Роберт Вон, Дональд Плезенс, Херберт Лом, Л. К. Джонс, Сара Моур Торп, Синтия Эрланд, Фозиа Дэвидсон, Виктор Меллени, Руфус Суорт, Гордон Малхоллэнд

    Описание фильма

    По роману Алистера Маклина. Действие происходит в джунглях Латинской Америки. В последние дни третьего рейха нацистский доктор бежит туда, чтобы продолжать эксперименты с вирусом-убийцей. Двадцать лет спустя герой-проводник (Дудикофф) ведет экспедицию на поиски тайного обиталища доктора. Одновременно доктора ищет другой нацистский преступник, жаждущий ему отомстить. Кроме того, здесь действуют воинственные индейцы, каннибалы, речные пираты, есть и дочь археолога, которую должен спасти Дудикофф. (Иванов М.)

    Время просмотра: 01: 41: 27
    Качество фильма видео: HDRip-AVC
    Перевод текста: Профессиональный (многоголосый, закадровый), авторский Ю.Живов
    Субтитры: Отсутствуют
    Информация о видео: AVC, 1024x556 (16: 9), 23.976 fps, 2 694 Kbps (0.197 bit/pixel)
    Информация о звуке #1: AC-3, 48.0 KHz, 2 ch, 192 Kbps, CBR (Russian)
    Информация о звуке #2: AC-3, 48.0 KHz, 2 ch, 192 Kbps, CBR (Russian)
    Mediainfo:

    Формат : Matroska
    Версия формата : Version 2
    Размер файла : 2, 18 Гбайт
    Продолжительность : 1 ч. 41 м.
    Общий поток : 3079 Кбит/сек
    Дата кодирования : UTC 2016-07-14 13: 31: 00
    Программа кодирования : mkvmerge v5.3.0 (;I could have danced;) built on Feb 9 2012 10: 38: 07
    Библиотека кодирования : libebml v1.2.3 + libmatroska v1.3.0
    Attachment : Yes
    Видео
    Идентификатор : 1
    Формат : AVC
    Формат/Информация : Advanced Video Codec
    Профиль формата : High@L4.1
    Параметр CABAC формата : Да
    Параметр ReFrames формата : 10 кадров
    Идентификатор кодека : V_MPEG4/ISO/AVC
    Продолжительность : 1 ч. 41 м.
    Битрейт : 2694 Кбит/сек
    Ширина : 1024 пикселя
    Высота : 556 пикселей
    Соотношение сторон : 1, 85: 1
    Режим частоты кадров : Постоянный
    Частота кадров : 23, 976 кадра/сек
    Цветовое пространство : YUV
    Субдискретизация насыщенности : 4: 2: 0
    Битовая глубина : 8 бит
    Тип развёртки : Прогрессивная
    Бит/(Пиксели*Кадры) : 0.197
    Размер потока : 1, 87 Гбайт (86%)
    Библиотека кодирования : x264 core 146 r2538 121396c
    Настройки программы : cabac=1/ref=10/deblock=1: -2: -2/analyse=0x3: 0x133/me=umh/subme=10/psy=1/psy_rd=1.00: 0.10/mixed_ref=1/me_range=32/chroma_me=1/trellis=2/8x8dct=1/cqm=0/deadzone=21, 11/fast_pskip=0/chroma_qp_offset=-3/threads=12/lookahead_threads=2/sliced_threads=0/nr=0/decimate=0/interlaced=0/bluray_compat=0/constrained_intra=0/bframes=8/b_pyramid=2/b_adapt=2/b_bias=0/direct=3/weightb=1/open_gop=0/weightp=2/keyint=240/keyint_min=23/scenecut=40/intra_refresh=0/rc_lookahead=40/rc=2pass/mbtree=0/bitrate=2694/ratetol=1.0/qcomp=0.60/qpmin=0/qpmax=69/qpstep=4/cplxblur=20.0/qblur=0.5/vbv_maxrate=50000/vbv_bufsize=62500/nal_hrd=none/filler=0/ip_ratio=1.40/pb_ratio=1.30/aq=2: 0.80
    Default : Да
    Forced : Нет
    Аудио #1
    Идентификатор : 2
    Формат : AC-3
    Формат/Информация : Audio Coding 3
    Расширение режима : CM (complete main)
    Параметр Endianness формата : Big
    Идентификатор кодека : A_AC3
    Продолжительность : 1 ч. 41 м.
    Вид битрейта : Постоянный
    Битрейт : 192 Кбит/сек
    Каналы : 2 канала
    Расположение каналов : Front: L R
    Частота : 48, 0 КГц
    Битовая глубина : 16 бит
    Метод сжатия : С потерями
    Задержка видео : 12 мс.
    Размер потока : 139 Мбайт (6%)
    Заголовок : Многоголосый
    Язык : Russian
    Default : Да
    Forced : Нет
    Аудио #2
    Идентификатор : 3
    Формат : AC-3
    Формат/Информация : Audio Coding 3
    Расширение режима : CM (complete main)
    Параметр Endianness формата : Big
    Идентификатор кодека : A_AC3
    Продолжительность : 1 ч. 41 м.
    Вид битрейта : Постоянный
    Битрейт : 192 Кбит/сек
    Каналы : 2 канала
    Расположение каналов : Front: L R
    Частота : 48, 0 КГц
    Битовая глубина : 16 бит
    Метод сжатия : С потерями
    Размер потока : 139 Мбайт (6%)
    Заголовок : Авторский Ю.Живов
    Язык : Russian
    Default : Нет
    Forced : Нет

    Скриншоты:


    Онлайн видео Река смерти


    Размер скачиваемого торрента: 2.18 GB (2342621642 Bytes)

    Река смерти/River of Death (1989) HDRip-AVC | P, A
    загрузка...
    Рейтинг →
     (голосов: 1, оценка 4/5, голосовать можно 1 раз )

    Другие торренты по теме:

  • Река смерти / River of Death (1989) HDTVRip | P
  • Река смерти / River Of Death (1989) BDRip | A


    • Комментарии (0):

      Информация

      Информация

        Посетители, находящиеся в группе Гости, не могут оставлять комментарии в данной новости.

        ↓ Меню



        ↓ Опрос

        А Вы добавили сайт в закладки?
        Да
        Не


        Top 10 за месяц (Фильмы)