.
Авторизация | Регистрация
Хочешь лучшие торренты? Добавь свой email!
Добавить
» » Пальмы в снегу / Palmeras en la nieve (2015) DVD-9 | P скачать торрент бесплатно




    Пальмы в снегу / Palmeras en la nieve (2015) DVD-9 | P скачать торрент бесплатно

    Опубликовал: Админ | Дата: 23-07-2016, 05:00 | Просмотров: 71



    Детально о кино
    Русское название: Пальмы в снегу
    Русское название в мировом прокате: Palmeras en la nieve
    Создали в: 2015
    Категория жанра: Мелодрама
    Главный режиссер: Фернандо Гонзалез Молина

    Актеры
    Марио Касас, Адриана Угарте, Макарена Гарсия, Ален Эрнандес, Берта Васкес, Джедже Апали, Даниэль Грао, Фернандо Кайо, Сельсо Бугальо

    Сюжет фильма
    Это история о большой любви, связи времен и поколений. Красавица Кларенс живет в холодных горах. Однажды она находит загадочное письмо и решает узнать правду о прошлом своего отца. Девушка отправляется на остров Фернандо-По и как будто попадает в рай. Она идет по следам семейных тайн, где есть и запретная любовь, и предательство, и великие события, ставшие частью мировой истории.
    Время просмотра: 02: 43: 05
    Перевод текста: Профессиональный многоголосый
    Файл
    Кодек для видео: MPEG-2
    Качество фильма: DVD-9
    Информация о видео: MPEG2, NTSC 16: 9 (720x480@853x480) VBR, 23, 976 кадров/сек
    Информация о звуке: Русский, Испанский DD 5.1 (384 Kbps)
    Меню
    DVDInfo

    Title:
    Size: 6.97 Gb ( 7 306 826 KBytes ) - DVD-9
    Enabled regions: 1, 2, 3, 4, 5, 6, 7, 8
    VTS_01 :
    Play Length: 02: 43: 05+00: 01: 36+00: 02: 15+00: 42: 42+00: 00: 11
    Video: NTSC 16: 9 (720x480) VBR, Auto PanScan
    Audio:
    Russian (Dolby AC3, 6 ch)
    Espanol (Dolby AC3, 6 ch)
    Menu Video:
    NTSC 4: 3 (704x480) VBR
    Menu English Language Unit :
    Root Menu
    MediaInfo

    Общее
    Полное имя : D: ААА2Пальмы в снегуVIDEO_TSVTS_01_1.VOB
    Формат : MPEG-PS
    Размер файла : 1000 Мбайт
    Продолжительность : 34 м.
    Режим общего битрейта : Переменный
    Общий поток : 4084 Кбит/сек
    Видео
    Идентификатор : 224 (0xE0)
    Формат : MPEG Video
    Версия формата : Version 2
    Профиль формата : Main@Main
    Параметр BVOP формата : Да
    Параметр матрицы формата : По умолчанию
    Параметр GOP формата : M=3, N=12
    Продолжительность : 34 м.
    Вид битрейта : Переменный
    Битрейт : 3235 Кбит/сек
    Максимальный битрейт : 7864 Кбит/сек
    Ширина : 720 пикселей
    Высота : 480 пикселей
    Соотношение сторон : 16: 9
    Частота кадров : 23, 976 кадра/сек
    Стандарт вещания : NTSC
    Цветовое пространство : YUV
    Субдискретизация насыщенности : 4: 2: 0
    Битовая глубина : 8 бит
    Тип развёртки : Прогрессивная
    Порядок развёртки : 2: 3 Pulldown
    Метод сжатия : С потерями
    Бит/(Пиксели*Кадры) : 0.390
    TimeCode_FirstFrame : 00: 00: 00;00
    TimeCode_Source : Group of pictures t_head
    Размер потока : 792 Мбайт (79%)
    Аудио #1
    Идентификатор : 189 (0xBD)-128 (0x80)
    Формат : AC-3
    Формат/Информация : Audio Coding 3
    Расширение режима : CM (complete main)
    Параметр Endianness формата : Big
    Режим смешивания : DVD-Video
    Продолжительность : 34 м.
    Вид битрейта : Постоянный
    Битрейт : 384 Кбит/сек
    Каналы : 6 каналов
    Расположение каналов : Front: L C R, Side: L R, LFE
    Частота : 48, 0 КГц
    Битовая глубина : 16 бит
    Метод сжатия : С потерями
    Размер потока : 94, 0 Мбайт (9%)
    Аудио #2
    Идентификатор : 189 (0xBD)-129 (0x81)
    Формат : AC-3
    Формат/Информация : Audio Coding 3
    Расширение режима : CM (complete main)
    Параметр Endianness формата : Big
    Режим смешивания : DVD-Video
    Продолжительность : 34 м.
    Вид битрейта : Постоянный
    Битрейт : 384 Кбит/сек
    Каналы : 6 каналов
    Расположение каналов : Front: L C R, Side: L R, LFE
    Частота : 48, 0 КГц
    Битовая глубина : 16 бит
    Метод сжатия : С потерями
    Размер потока : 94, 0 Мбайт (9%)

    Скриншоты



    Релиз:
    Залил: YArl

    Онлайн видео Пальмы в снегу


    Размер скачиваемого торрента: 6.97 GB (7482189824 Bytes)

    Пальмы в снегу/Palmeras en la nieve (2015) DVD-9 | P
    загрузка...
    Рейтинг →
     (голосов: 1, оценка 4/5, голосовать можно 1 раз )

    Другие торренты по теме:

  • Пальмы в снегу / Palmeras en la nieve (2015) HDRip | P
  • Пальмы в снегу / Palmeras en la nieve (2015)
  • Пальмы в снегу / Palmeras en la nieve (2015) HDRip от Scarabey | iTunes
  • Пальмы в снегу / Palmeras en la nieve (2015) BDRip 720p | iTunes


    • Комментарии (0):

      Информация

      Информация

        Посетители, находящиеся в группе Гости, не могут оставлять комментарии в данной новости.

        ↓ Меню



        ↓ Опрос

        А Вы добавили сайт в закладки?
        Да
        Не


        Top 10 за месяц (Фильмы)