.
Авторизация | Регистрация
Хочешь лучшие торренты? Добавь свой email!
Добавить
» » Преступник / Criminal (2016) DVD-9 | D скачать торрент бесплатно




    Преступник / Criminal (2016) DVD-9 | D скачать торрент бесплатно

    Опубликовал: Админ | Дата: 23-07-2016, 05:00 | Просмотров: 123



    Детально о кино
    Русское название: Преступник
    Русское название в мировом прокате: Criminal
    Создали в: 2016
    Категория жанра: Фантастика
    Главный режиссер: Ариэль Вромен

    Актеры
    Кевин Костнер, Гэри Олдман, Томми Ли Джонс, Райан Рейнольдс, Элис Ив, Галь Гадот, Хорди Молья, Майкл Питт, Амори Ноласко, Антье Трауэ, Скотт Эдкинс, Лара Дэкаро, Фредди Бош, Эммануэль Имани, Гарри Хэппл

    Сюжет фильма
    В последней отчаянной попытке остановить катастрофу мирового масштаба генетики осуществляют невероятную операцию по вживлению воспоминаний и умений погибшего оперативника ЦРУ в тело опасного заключенного с надеждой, что тот доведет до конца прерванную миссию агента.
    Время просмотра: 01: 53: 27
    Перевод текста: Дублированный
    Файл
    Кодек для видео: MPEG-2
    Качество фильма: DVD-9
    Информация о видео: MPEG2, NTSC 16: 9 (720x480@853x480) VBR, 23, 976 кадров/сек
    Информация о звуке: Русский, Английский DD 5.1 (384 Kbps)
    Меню
    DVDInfo

    Title:
    Size: 5.21 Gb ( 5 465 200 KBytes ) - DVD-9
    Enabled regions: 1, 2, 3, 4, 5, 6, 7, 8
    VTS_01 :
    Play Length: 01: 53: 27
    Video: NTSC 16: 9 (720x480) VBR, Auto PanScan
    Audio:
    Russian (Dolby AC3, 6 ch)
    English (Dolby AC3, 6 ch)
    Menu Video:
    NTSC 4: 3 (704x480) VBR
    Menu English Language Unit :
    Root Menu
    MediaInfo

    Общее
    Полное имя : D: ААА2ПРЕСТУПНИКVIDEO_TSVTS_01_1.VOB
    Формат : MPEG-PS
    Размер файла : 1000 Мбайт
    Продолжительность : 21 м.
    Режим общего битрейта : Переменный
    Общий поток : 6588 Кбит/сек
    Видео
    Идентификатор : 224 (0xE0)
    Формат : MPEG Video
    Версия формата : Version 2
    Профиль формата : Main@Main
    Параметр BVOP формата : Да
    Параметр матрицы формата : По умолчанию
    Параметр GOP формата : M=3, N=12
    Продолжительность : 21 м.
    Вид битрейта : Переменный
    Битрейт : 5689 Кбит/сек
    Максимальный битрейт : 8312 Кбит/сек
    Ширина : 720 пикселей
    Высота : 480 пикселей
    Соотношение сторон : 16: 9
    Частота кадров : 23, 976 кадра/сек
    Стандарт вещания : NTSC
    Цветовое пространство : YUV
    Субдискретизация насыщенности : 4: 2: 0
    Битовая глубина : 8 бит
    Тип развёртки : Прогрессивная
    Порядок развёртки : 2: 3 Pulldown
    Метод сжатия : С потерями
    Бит/(Пиксели*Кадры) : 0.687
    TimeCode_FirstFrame : 00: 00: 00;00
    TimeCode_Source : Group of pictures t_head
    Размер потока : 864 Мбайт (86%)
    Аудио #1
    Идентификатор : 189 (0xBD)-128 (0x80)
    Формат : AC-3
    Формат/Информация : Audio Coding 3
    Расширение режима : CM (complete main)
    Параметр Endianness формата : Big
    Режим смешивания : DVD-Video
    Продолжительность : 21 м.
    Вид битрейта : Постоянный
    Битрейт : 384 Кбит/сек
    Каналы : 6 каналов
    Расположение каналов : Front: L C R, Side: L R, LFE
    Частота : 48, 0 КГц
    Битовая глубина : 16 бит
    Метод сжатия : С потерями
    Размер потока : 58, 3 Мбайт (6%)
    Аудио #2
    Идентификатор : 189 (0xBD)-129 (0x81)
    Формат : AC-3
    Формат/Информация : Audio Coding 3
    Расширение режима : CM (complete main)
    Параметр Endianness формата : Big
    Режим смешивания : DVD-Video
    Продолжительность : 21 м.
    Вид битрейта : Постоянный
    Битрейт : 384 Кбит/сек
    Каналы : 6 каналов
    Расположение каналов : Front: L C R, Side: L R, LFE
    Частота : 48, 0 КГц
    Битовая глубина : 16 бит
    Метод сжатия : С потерями
    Размер потока : 58, 3 Мбайт (6%)
    Меню

    Скриншоты



    Релиз:
    Залил: YArl

    Онлайн видео Преступник


    Размер скачиваемого торрента: 5.21 GB (5596364800 Bytes)

    Преступник/Criminal (2016) DVD-9 | D
    загрузка...
    Рейтинг →
     (голосов: 1, оценка 4/5, голосовать можно 1 раз )

    Другие торренты по теме:

  • Мыслить как преступник / Criminal Minds (2012) WEB-DLRip | Fox Crime
  • Мыслить как преступник / Criminal Minds (2010-2011) WEB-DLRip | Fox Crime
  • Мыслить как преступник / Criminal Minds (2005-2012) WEB-DLRip | P скачать через торрент бесплатно
  • Мыслить как преступник / Criminal Minds (2013) WEB-DLRip | Fox скачать через торрент бесплатно
  • Мыслить как преступник / Criminal Minds (2013) WEB-DLRip | Fox
  • Мыслить как преступник / Criminal Minds (2005-2014) WEB-DLRip | P
  • Мыслить как преступник / Criminal Minds (2014) WEB-DL 720p от MediaClub | P | Fox скачать через торрент бесплатно
  • Мыслить как преступник / Criminal Minds (2014) WEB-DLRip от MediaClub | P | Fox


    • Комментарии (0):

      Информация

      Информация

        Посетители, находящиеся в группе Гости, не могут оставлять комментарии в данной новости.

        ↓ Меню



        ↓ Опрос

        А Вы добавили сайт в закладки?
        Да
        Не


        Top 10 за месяц (Фильмы)