.
Авторизация | Регистрация
Хочешь лучшие торренты? Добавь свой email!
Добавить
» » Люди Икс: Апокалипсис / X-Men: Apocalypse (2016) WEBRip-AVC | D | Line скачать торрент бесплатно




    Люди Икс: Апокалипсис / X-Men: Apocalypse (2016) WEBRip-AVC | D | Line скачать торрент бесплатно

    Опубликовал: Админ | Дата: 21-07-2016, 14:31 | Просмотров: 95



    Детально о кино
    Русское название: Люди Икс: Апокалипсис
    Русское название в мировом прокате: X-Men: Apocalypse
    Создали в: 2016
    Категория жанра: фантастика, фэнтези, боевик, приключения
    Главный режиссер: Брайан Сингер

    Актеры
    Саймон Кинберг, Лорен Шулер Доннер, Брайан Сингер Актеры: Джеймс МакЭвой, Майкл Фассбендер, Дженнифер Лоуренс, Николас Холт, Оскар Айзек, Роуз Бирн, Эван Питерс, Джош Хелман, Софи Тернер, Тай Шеридан
    Слоган: Выживет сильнейший

    Сюжет фильма
    События Дней Минувшего Будущего оказали колоссальное влияние на мир, где мутанты и люди борются за свое место под Солнцем. В это нелегкое время Людям Икс предстоит столкнуться со своим самым опасным противником — древним мутантом Апокалипсисом, существом, схватка с которым может стать последней не только для мутантов, но и в принципе для всего человечества. В поисках способа победы над неуязвимым и бессмертным монстром Людям Икс предстоит узнать больше о происхождении своего вида. Но Апокалипсис неимоверно силен, и вероятность победы все уменьшается, ведь он твердо убежден, что только сильнейшие имеют право на выживание…

    Снималось в: США/20th Century Fox Film Corporation, Bad Hat Harry Productions, Donners; Company, Marvel Entertainment, Mel;s Cite du Cinema, TSG Entertainment
    Время просмотра: 02: 23: 35
    Перевод текста: Дублированный Line
    Файл
    Качество фильма: WEBRip-AVC
    Тип видео: MKV
    Информация о видео: AVC, 2500 Kb/s, 1024x576
    Информация о звуке: Russian/English: AC3, 192 Kb/s (2 ch)
    Субтитры: Chinese: (не отключаемые), English (внешние)


    Релиз подготовил:
    MediaInfo:
    Format : Matroska
    Format version : Version 4/Version 2
    File size : 2.90 GiB
    Duration : 2h 23mn
    Overall bit rate : 2 890 Kbps
    Movie name : Rip by basma4i
    Writing application : XviD4PSP 7.0.279 DAILY
    Writing library : Lavf57.25.100
    ENCODING_INFO : MATROSKA, WEBM MKV/H264 X264 VBR-2P 2500kbps Произвольный/AC3 AC3 CBR 192kbps/AC3 AC3 CBR 192kbps
    MIMETYPE : image/png
    FILENAME : cover.png
    DURATION : 00: 00: 00.000000000
    Attachements : cover.png
    Video
    ID : 1
    Format : AVC
    Format/Info : Advanced Video Codec
    Format profile : Main@L4.1
    Format settings, CABAC : Yes
    Format settings, ReFrames : 11 frames
    Codec ID : V_MPEG4/ISO/AVC
    Bit rate : 2 500 Kbps
    Width : 1 024 pixels
    Height : 576 pixels
    Display aspect ratio : 16: 9
    Frame rate mode : Variable
    Original frame rate : 29.970 fps
    Color space : YUV
    Chroma subsampling : 4: 2: 0
    Bit depth : 8 bits
    Scan type : Progressive
    Bits/(Pixel*Frame) : 0.141
    Writing library : x264 core 148 r2705M 3f5ed56
    Encoding settings : cabac=1/ref=11/deblock=1: -1: -1/analyse=0x1: 0x131/me=umh/subme=11/psy=1/psy_rd=1.00: 0.20/mixed_ref=1/me_range=32/chroma_me=1/trellis=2/8x8dct=0/cqm=0/deadzone=21, 11/fast_pskip=1/chroma_qp_offset=-3/threads=12/lookahead_threads=3/sliced_threads=0/nr=0/decimate=1/interlaced=0/bluray_compat=0/constrained_intra=0/bframes=11/b_pyramid=2/b_adapt=2/b_bias=11/direct=3/weightb=1/open_gop=0/weightp=2/keyint=250/keyint_min=25/scenecut=40/intra_refresh=0/rc_lookahead=40/rc=2pass/mbtree=1/bitrate=2500/ratetol=1.0/qcomp=0.60/qpmin=0/qpmax=69/qpstep=4/cplxblur=20.0/qblur=0.5/ip_ratio=1.40/aq=1: 1.00
    Language : English
    Default : Yes
    Forced : No
    DURATION : 02: 23: 35.078000000
    Audio #1
    ID : 2
    Format : AC-3
    Format/Info : Audio Coding 3
    Mode extension : CM (complete main)
    Format settings, Endianness : Big
    Codec ID : A_AC3
    Duration : 2h 23mn
    Bit rate mode : Constant
    Bit rate : 192 Kbps
    Channel(s) : 2 channels
    Channel positions : Front: L R
    Sampling rate : 48.0 KHz
    Bit depth : 32 bits
    Compression mode : Lossy
    Stream size : 197 MiB (7%)
    Title : Line
    Language : Russian
    Default : Yes
    Forced : Yes
    DURATION : 02: 23: 35.072000000
    Audio #2
    ID : 3
    Format : AC-3
    Format/Info : Audio Coding 3
    Mode extension : CM (complete main)
    Format settings, Endianness : Big
    Codec ID : A_AC3
    Duration : 2h 23mn
    Bit rate mode : Constant
    Bit rate : 192 Kbps
    Channel(s) : 2 channels
    Channel positions : Front: L R
    Sampling rate : 48.0 KHz
    Bit depth : 32 bits
    Compression mode : Lossy
    Stream size : 197 MiB (7%)
    Title : Original
    Language : English
    Default : Yes
    Forced : No
    DURATION : 02: 23: 34.592000000
    Text
    ID : 4
    Format : UTF-8
    Codec ID : S_TEXT/UTF8
    Codec ID/Info : UTF-8 Plain Text
    Language : English
    Default : Yes
    Forced : No
    DURATION : 02: 23: 23.192000000
    Скриншоты


    Онлайн видео Люди Икс: Апокалипсис


    Размер скачиваемого торрента: 2.90 GB (3111826750 Bytes)

    Люди Икс: Апокалипсис/X-Men: Apocalypse (2016) WEBRip-AVC | D | Line
    загрузка...
    Рейтинг →
     (голосов: 1, оценка 3/5, голосовать можно 1 раз )

    Другие торренты по теме:

  • OST - Люди Икс: Апокалипсис / X-Men: Apocalypse (2016) MP3 от NNNB
  • Люди Икс: Апокалипсис / X-Men: Apocalypse (2016)
  • Люди Икс: Апокалипсис / X-Men: Apocalypse (2016) ТС | D | Line
  • Люди Икс: Апокалипсис / X-Men: Apocalypse (2016) TS | Line
  • Люди Икс: Апокалипсис / X-Men: Apocalypse (2016) WEBRip | D | Line
  • Люди Икс: Апокалипсис / X-Men: Apocalypse (2016) WEBRip 720р | D | Line
  • Люди Икс: Апокалипсис / X-Men: Apocalypse (2016) WEBRip 1080р | D | Line
  • Люди Икс: Апокалипсис / X-Men: Apocalypse (2016) HDRip от Generalfilm | КПК | iTunes


    • Комментарии (0):

      Информация

      Информация

        Посетители, находящиеся в группе Гости, не могут оставлять комментарии в данной новости.

        ↓ Меню



        ↓ Опрос

        А Вы добавили сайт в закладки?
        Да
        Не


        Top 10 за месяц (Фильмы)