.
Авторизация | Регистрация
Хочешь лучшие торренты? Добавь свой email!
Добавить
» » Суперполицейские из Майами / Miami Supercops (1985) BDRip-AVC | Гаврилов скачать торрент бесплатно




    Суперполицейские из Майами / Miami Supercops (1985) BDRip-AVC | Гаврилов скачать торрент бесплатно

    Опубликовал: Админ | Дата: 21-07-2016, 05:00 | Просмотров: 65



    Создали в: Италия/El Pico S.A., Trans-Cinema TV
    Категория жанра: Боевик, Комедия, Криминал
    Перевод текста: Авторский (одноголосый, закадровый)
    Автор перевода: А.Гаврилов
    Субтитры: Отсутствуют
    Главный режиссер: Бруно Корбуччи
    Актеры: Теренс Хилл, Бад Спенсер, С.Б. Сиэй, Уильям Бо Джим, Кен Кересн, Джеки Кастеллано, С.В. Вуд мл., Ричард Либерти, Ронда С. Лундстид, Баффи Ди

    Описание фильма

    В 1978 году трое грабителей украли из Детройтского Национального Банка 20 миллионов долларов. Один из них вскоре после ограбления был найден мертвым, второй бесследно изчез, а третий был пойман и отсидев 8 лет в тюрьме вышел на свободу. Теперь он хочет найти подельников и забрать у них свою долю. Агенты ФБР Даг Беннет и Стив Форрест работающие под прикрытием, во что бы то ни стало должны схватить преступников и вернуть похищенные деньги.
    Качество фильма видео: BDRip-AVC
    Информация о видео: AVC, 1024x576 (16: 9), 23.976 fps, 2 961 Kbps (0.209 bit/pixel)
    Информация о звуке: AC-3 Dolby Digital, 48.0 KHz, 2 ch, 256 Kbps, CBR (Russian)
    Mediainfo:

    Формат : Matroska
    Версия формата : Version 2
    Размер файла : 2, 18 Гбайт
    Продолжительность : 1 ч. 36 м.
    Общий поток : 3219 Кбит/сек
    Дата кодирования : UTC 2016-07-20 18: 04: 29
    Программа кодирования : mkvmerge v5.3.0 (;I could have danced;) built on Feb 9 2012 10: 38: 07
    Библиотека кодирования : libebml v1.2.3 + libmatroska v1.3.0
    Attachment : Yes
    Видео
    Идентификатор : 1
    Формат : AVC
    Формат/Информация : Advanced Video Codec
    Профиль формата : High@L4.1
    Параметр CABAC формата : Да
    Параметр ReFrames формата : 10 кадров
    Идентификатор кодека : V_MPEG4/ISO/AVC
    Продолжительность : 1 ч. 36 м.
    Битрейт : 2961 Кбит/сек
    Ширина : 1024 пикселя
    Высота : 576 пикселей
    Соотношение сторон : 16: 9
    Режим частоты кадров : Постоянный
    Частота кадров : 23, 976 кадра/сек
    Цветовое пространство : YUV
    Субдискретизация насыщенности : 4: 2: 0
    Битовая глубина : 8 бит
    Тип развёртки : Прогрессивная
    Бит/(Пиксели*Кадры) : 0.209
    Размер потока : 1, 96 Гбайт (90%)
    Библиотека кодирования : x264 core 146 r2538 121396c
    Настройки программы : cabac=1/ref=10/deblock=1: -3: -3/analyse=0x3: 0x133/me=umh/subme=10/psy=1/psy_rd=1.00: 0.15/mixed_ref=1/me_range=32/chroma_me=1/trellis=2/8x8dct=1/cqm=0/deadzone=21, 11/fast_pskip=0/chroma_qp_offset=-3/threads=12/lookahead_threads=2/sliced_threads=0/nr=0/decimate=0/interlaced=0/bluray_compat=0/constrained_intra=0/bframes=8/b_pyramid=2/b_adapt=2/b_bias=0/direct=3/weightb=1/open_gop=0/weightp=2/keyint=240/keyint_min=23/scenecut=40/intra_refresh=0/rc_lookahead=40/rc=2pass/mbtree=0/bitrate=2961/ratetol=1.0/qcomp=0.60/qpmin=0/qpmax=69/qpstep=4/cplxblur=20.0/qblur=0.5/vbv_maxrate=50000/vbv_bufsize=62500/nal_hrd=none/filler=0/ip_ratio=1.40/pb_ratio=1.30/aq=1: 0.70
    Default : Да
    Forced : Нет
    Аудио
    Идентификатор : 2
    Формат : AC-3
    Формат/Информация : Audio Coding 3
    Профиль формата : Dolby Digital
    Расширение режима : CM (complete main)
    Параметр Endianness формата : Big
    Идентификатор кодека : A_AC3
    Продолжительность : 1 ч. 36 м.
    Вид битрейта : Постоянный
    Битрейт : 256 Кбит/сек
    Каналы : 2 канала
    Расположение каналов : Front: L R
    Частота : 48, 0 КГц
    Битовая глубина : 16 бит
    Метод сжатия : С потерями
    Размер потока : 178 Мбайт (8%)
    Заголовок : Авторский А.Гаврилов
    Язык : Russian
    Default : Да
    Forced : Нет
    Меню
    00: 00: 00.000 : : Chapter 01
    00: 12: 45.014 : : Chapter 02
    00: 23: 27.239 : : Chapter 03
    00: 34: 34.614 : : Chapter 04
    00: 46: 12.936 : : Chapter 05
    00: 55: 25.363 : : Chapter 06
    01: 08: 25.935 : : Chapter 07
    01: 21: 33.972 : : Chapter 08

    Скриншоты:


    Онлайн видео Суперполицейские из Майами


    Размер скачиваемого торрента: 2.18 GB (2341603660 Bytes)

    Суперполицейские из Майами/Miami Supercops (1985) BDRip-AVC | Гаврилов
    загрузка...
    Рейтинг →
     (голосов: 1, оценка 3/5, голосовать можно 1 раз )

    Другие торренты по теме:

  • Суперполицейские из Майами / Miami Supercops (1985) HDRip от Koenig | A


    • Комментарии (0):

      Информация

      Информация

        Посетители, находящиеся в группе Гости, не могут оставлять комментарии в данной новости.

        ↓ Меню



        ↓ Опрос

        А Вы добавили сайт в закладки?
        Да
        Не


        Top 10 за месяц (Фильмы)