.
Авторизация | Регистрация
Хочешь лучшие торренты? Добавь свой email!
Добавить
» » Нестерка (1955) DVDRip от New-Team скачать торрент бесплатно




    Нестерка (1955) DVDRip от New-Team скачать торрент бесплатно

    Опубликовал: Админ | Дата: 20-07-2016, 15:35 | Просмотров: 68



    Снималось в: СССР
    Создали в: Беларусьфильм
    Категория жанра: приключения, комедия
    Создали в: 1955
    Время просмотра: 01: 28: 15
    Перевод текста: Не требуется
    Субтитры подготовлены: русский
    Оригинальная аудиодорожка: русский
    Главный режиссер: Александр Зархи

    Актеры

    Борис Тенин, Евгений Полосин, Вера Полло, Лилия Дроздова, Иван Савкин, Эраст Гарин, Георгий Бударов, Глеб Глебов, Владимир Дедюшко, Алексей Барановский, Пётр Репнин, В. Васильев, Николай Блащук, Григорий Лойко, Павел Панёв, В. Кувшинов (II), Николай Яковченко, Нина Зарипова...
    Полный список актёров
    Описание:
    Самым ярким и любимым героем белорусского народного фольклора является Нестерка, который дурил панов и защищал бедняков.
    Этот фильм о веселых приключениях бедняка Нестерки (Борис Тенин), белорусского Ходжи Насреддина, обладающего неистребимым оптимизмом, умом и смекалкой. Нестерка скитается по родному краю, никогда не унывает и всегда готов прийти на помощь бедному люду.



    Источник: DVD5 R5
    Качество фильма видео: DVDRip
    Тип видео видео: AVI
    Информация о видео: 640x480 (4: 3), 25 fps, XviD ~ 1043 kbps avg, 0.136 bit/pixel
    Информация о звуке: 48 kHz, MP3 2.0, 128 kbps
    Раздача от:
    MediaInfo

    Общее
    Полное имя : Nesterka.1955.DVDRip-745_New-team_by_AVP_Studio.avi
    Формат : AVI
    Формат/Информация : Audio Video Interleave
    Размер файла : 745 Мбайт
    Продолжительность : 1 ч. 28 м.
    Общий поток : 1180 Кбит/сек
    Программа кодирования : VirtualDubMod 1.5.10.3 | www.virtualdub-fr.org || (build 2550/release)
    Библиотека кодирования : VirtualDubMod build 2550/release
    Видео
    Идентификатор : 0
    Формат : MPEG-4 Visual
    Профиль формата : Advanced Simple@L5
    Параметр BVOP формата : 1
    Параметр QPel формата : Нет
    Параметр GMC формата : Без точки перехода
    Параметр матрицы формата : Выборочная
    Идентификатор кодека : XVID
    Идентификатор кодека/Подсказка : XviD
    Продолжительность : 1 ч. 28 м.
    Битрейт : 1043 Кбит/сек
    Ширина : 640 пикселей
    Высота : 480 пикселей
    Соотношение сторон : 4: 3
    Частота кадров : 25, 000 кадров/сек
    Цветовое пространство : YUV
    Субдискретизация насыщенности : 4: 2: 0
    Битовая глубина : 8 бит
    Тип развёртки : Прогрессивная
    Метод сжатия : С потерями
    Бит/(Пиксели*Кадры) : 0.136
    Размер потока : 658 Мбайт (88%)
    Библиотека кодирования : XviD 1.2.1 (UTC 2008-12-04)
    Аудио
    Идентификатор : 1
    Формат : MPEG Audio
    Версия формата : Version 1
    Профиль формата : Layer 3
    Идентификатор кодека : 55
    Идентификатор кодека/Подсказка : MP3
    Продолжительность : 1 ч. 28 м.
    Вид битрейта : Постоянный
    Битрейт : 128 Кбит/сек
    Каналы : 1 канал
    Частота : 48, 0 КГц
    Метод сжатия : С потерями
    Размер потока : 80, 8 Мбайт (11%)
    Выравнивание : Соединение по промежуткам
    Продолжительность промежутка : 40 мс. (1, 00 видеокадр)
    Время предзагрузки промежутка : 504 мс.
    Библиотека кодирования : LAME3.99r
    Залил: AVPStudio

    Онлайн видео Нестерка (1955) DVDRip от New


    Размер скачиваемого торрента: 745.12 MB (781314048 Bytes)


    Нестерка (1955) DVDRip от New-Team
    загрузка...
    Рейтинг →
     (голосов: 1, оценка 3/5, голосовать можно 1 раз )

    Другие торренты по теме:



      Комментарии (0):

      Информация

      Информация

        Посетители, находящиеся в группе Гости, не могут оставлять комментарии в данной новости.

        ↓ Меню



        ↓ Опрос

        А Вы добавили сайт в закладки?
        Да
        Не


        Top 10 за месяц (Фильмы)