.
Авторизация | Регистрация
Хочешь лучшие торренты? Добавь свой email!
Добавить
» » Война цветов 2 / Tajja: sineui son (2014) BDRemux 1080p | L скачать торрент бесплатно




    Война цветов 2 / Tajja: sineui son (2014) BDRemux 1080p | L скачать торрент бесплатно

    Опубликовал: Админ | Дата: 20-07-2016, 05:00 | Просмотров: 55



    Война цветов 2 / Tazza: The Hidden Card / Tajja: sineui son
    Снималось в: Южная Корея
    Создали в: DCG Plus, Lotte Entertainment, Sidus Pictures, SPC
    Создали в: 2014
    Категория жанра: драма, криминал
    Время просмотра: 02: 27: 02
    Главный режиссер: Кан Хён-чхоль
    Автор сценария: Кан Хён-чхоль

    Актеры
    Чхве Сын-хён, Щин Сэ-гён, Ким Юн-сок, Ю Хэ-джин, Ли Хони, Ли Гён-ён, Ким Ин-гвон, О Джон-сэ, Пак Хё-джу, Ко Су-хи
    Описание: Хам Дэ Гиль, племянник Го Ни, приезжает в Сеул и втягивается в игру. Хам Дэ Гиль достигает ослепительного успеха и воссоединяется со своей первой любовью, Ми На. Однако, вскоре, Дэ Гиль становится козлом отпущения в результате сговора и предательства и вынужден пуститься в бега. Но он не сдаётся и готовится отомстить в большой игре...

    Перевод текста: Любительский (многоголосый, закадровый) | Green Tea
    Роли озвучивали: Пётр Слепцов, Константин Романов, Ярослав Мельник, Елена Егорова, Людмила Линькова, Ольга Гринтиева
    Субтитры: английские
    Качество фильма: BDRemux 1080p
    Тип видео: МКV
    Информация о видео кодек: AVC
    Информация о звуке кодек: АС3 | DTS
    Информация о видео: 1920x1080 (16: 9), 23.976 fps, MPEG-4 AVC ~27.9 Мbps avg
    Информация о звуке №1: 48.0 kHz, AC3 Dolby Digital, 2/0 (L, R) ch, ~192 kbps | RUS
    Информация о звуке №2: 48.0 kHz, Digital Theater Systems Master Audio, 3/2 (L, C, R, l, r) + LFE ch, ~3670 kbps | KOR
    Тип видео субтитров: UTF-8 Plain Text
    Дата премьеры (мир): 3 сентября 2014

    Релиз подготовил:
    Media Info
    General
    Уникальный идентификатор : 247295856135026791246005644999955347002 (0xBA0B730ED96CDE3E9DE1E59B6590763A)
    Полное имя : Tazza.The.Hidden.Card.2014.BDRemux.1080p_by_vedigo.mkv
    Формат : Matroska
    Версия формата : Version 4/Version 2
    Размер файла : 32, 7 Гбайт
    Продолжительность : 2 ч. 27 м.
    Режим общего битрейта : Переменный
    Общий поток : 31, 8 Мбит/сек
    Название фильма : Tazza.The.Hidden.Card.2014.BDRemux.1080p_by_vedigo
    Дата кодирования : UTC 2016-07-13 23: 28: 12
    Программа кодирования : mkvmerge v9.3.0 (;Second Sight;) 64bit
    Библиотека кодирования : libebml v1.3.4 + libmatroska v1.4.5
    Видео
    Идентификатор : 1
    Формат : AVC
    Формат/Информация : Advanced Video Codec
    Профиль формата : High@L4.1
    Параметр CABAC формата : Да
    Параметр ReFrames формата : 4 кадра
    Параметр GOP формата : M=3, N=24
    Идентификатор кодека : V_MPEG4/ISO/AVC
    Продолжительность : 2 ч. 27 м.
    Вид битрейта : Переменный
    Битрейт : 27, 9 Мбит/сек
    Максимальный битрейт : 35, 0 Мбит/сек
    Ширина : 1920 пикселей
    Высота : 1080 пикселей
    Соотношение сторон : 16: 9
    Режим частоты кадров : Постоянный
    Частота кадров : 23, 976 (24000/1001) кадра/сек
    Стандарт вещания : NTSC
    Цветовое пространство : YUV
    Субдискретизация насыщенности : 4: 2: 0
    Битовая глубина : 8 бит
    Тип развёртки : Прогрессивная
    Бит/(Пиксели*Кадры) : 0.562
    Размер потока : 28, 7 Гбайт (88%)
    Заголовок : Tazza.The.Hidden.Card.2014.BDRemux.1080p_by_vedigo
    Default : Нет
    Forced : Нет
    Цветовой диапазон : Limited
    Основные цвета : BT.709
    Характеристики трансфера : BT.709
    Коэффициенты матрицы : BT.709
    Аудио #1
    Идентификатор : 2
    Формат : AC-3
    Формат/Информация : Audio Coding 3
    Расширение режима : CM (complete main)
    Параметр Endianness формата : Big
    Идентификатор кодека : A_AC3
    Продолжительность : 2 ч. 27 м.
    Вид битрейта : Постоянный
    Битрейт : 192 Кбит/сек
    Каналы : 2 канала
    Расположение каналов : Front: L R
    Частота : 48, 0 КГц
    Частота кадров : 31, 250 кадров/сек (1536 spf)
    Метод сжатия : С потерями
    Размер потока : 202 Мбайт (1%)
    Заголовок : MVO
    Язык : Russian
    Default : Да
    Forced : Нет
    Аудио #2
    Идентификатор : 3
    Формат : DTS
    Формат/Информация : Digital Theater Systems
    Профиль формата : MA/Core
    Режим : 16
    Параметр Endianness формата : Big
    Идентификатор кодека : A_DTS
    Продолжительность : 2 ч. 27 м.
    Вид битрейта : Переменный/Постоянный
    Битрейт : 3670 Кбит/сек/1509 Кбит/сек
    Каналы : 6 каналов
    Расположение каналов : Front: L C R, Side: L R, LFE
    Частота : 48, 0 КГц
    Частота кадров : 93, 750 кадра/сек (512 spf)
    Битовая глубина : 24 бит
    Метод сжатия : Без потерь/Lossy
    Размер потока : 3, 77 Гбайт (12%)
    Заголовок : original
    Язык : Korean
    Default : Нет
    Forced : Нет
    Текст
    Идентификатор : 4
    Формат : UTF-8
    Идентификатор кодека : S_TEXT/UTF8
    Идентификатор кодека/Информация : UTF-8 Plain Text
    Продолжительность : 2 ч. 22 м.
    Битрейт : 42 бит/сек
    Count of elements : 1991
    Размер потока : 44, 0 Кбайт (0%)
    Заголовок : Subtitle eng
    Язык : English
    Default : Нет
    Forced : Нет
    Меню
    00: 00: 00.000 : en: 00: 00: 00.000
    00: 12: 18.947 : en: 00: 12: 18.947
    00: 22: 27.805 : en: 00: 22: 27.805
    00: 32: 49.634 : en: 00: 32: 49.634
    00: 48: 13.682 : en: 00: 48: 13.682
    01: 01: 37.485 : en: 01: 01: 37.485
    01: 15: 40.870 : en: 01: 15: 40.870
    01: 24: 31.358 : en: 01: 24: 31.358
    01: 36: 06.219 : en: 01: 36: 06.219
    01: 48: 38.470 : en: 01: 48: 38.470
    02: 00: 18.670 : en: 02: 00: 18.670
    02: 20: 39.389 : en: 02: 20: 39.389

    Скриншоты

    Залил: Zha-4k-e

    Онлайн видео Война цветов 2


    Размер скачиваемого торрента: 32.67 GB (35081184962 Bytes)

    Война цветов 2/Tajja: sineui son (2014) BDRemux 1080p | L
    загрузка...
    Рейтинг →
     (голосов: 1, оценка 4/5, голосовать можно 1 раз )

    Другие торренты по теме:

  • Война цветов 2 / Tajja: sineui son (2014) BDRip 720p | L
  • Война цветов / Tajja (2006) BDRip 1080р | L1
  • Война цветов / Tajja (2006) BDRip 720р | L1


    • Комментарии (0):

      Информация

      Информация

        Посетители, находящиеся в группе Гости, не могут оставлять комментарии в данной новости.

        ↓ Меню



        ↓ Опрос

        А Вы добавили сайт в закладки?
        Да
        Не


        Top 10 за месяц (Фильмы)