.
Авторизация | Регистрация
Хочешь лучшие торренты? Добавь свой email!
Добавить




Мы с дедушкой (2014) WEBRip-AVC скачать торрент бесплатно

Опубликовал: Админ | Дата: 17-07-2016, 12:28 | Просмотров: 65



Детально о кино
Русское название: Мы с дедушкой
Создали в: 2014
Категория жанра: драма, семейный
Главный режиссер: Александр Кулямин

Актеры
Юрий Назаров, Тимофей Разуваев, Алексей Тихонов, Екатерина Альбрандт, Людмила Мальцева, Ольга Воронцова, Галина Чурилина, Олег Иванов

Сюжет фильма

Картина рассказывает о мальчике, который всю жизнь прожил в городе и о деревне имеет смутные представления. Но однажды его отправят на каникулы к дедушке. Будут ссоры, непонимание, и только случай, который чуть не стоил деду жизни, всё изменит.

Создали в: Россия/Ленкино, Леда-фильм
Время просмотра: 01: 33: 36
Перевод текста: не требуется
Файл
Качество фильма: WEBRip-AVC
Тип видео: MKV
Информация о видео: MPEG-4 AVC, 854x480 (16: 9), 25.000 fps, 740 kbps, 0.072 bit/pixel
Информация о звуке: русский, AC3 2.0, 44.1 kHz, 128 kbps
MediaInfo
Формат : Matroska
Версия формата : Version 4/Version 2
Размер файла : 593 Мбайт
Продолжительность : 1 ч. 33 м.
Общий поток : 886 Кбит/сек
Дата кодирования : UTC 2016-07-16 12: 34: 54
Программа кодирования : mkvmerge v7.9.0 (;Birds;) 64bit
Библиотека кодирования : libebml v1.3.1 + libmatroska v1.4.2
Видео
Идентификатор : 1
Формат : AVC
Формат/Информация : Advanced Video Codec
Профиль формата : Main@L3
Параметр CABAC формата : Да
Параметр ReFrames формата : 3 кадра
Идентификатор кодека : V_MPEG4/ISO/AVC
Продолжительность : 1 ч. 33 м.
Битрейт : 740 Кбит/сек
Ширина : 854 пикселя
Высота : 480 пикселей
Соотношение сторон : 16: 9
Режим частоты кадров : Постоянный
Частота кадров : 25, 000 кадров/сек
Цветовое пространство : YUV
Субдискретизация насыщенности : 4: 2: 0
Битовая глубина : 8 бит
Тип развёртки : Прогрессивная
Бит/(Пиксели*Кадры) : 0.072
Размер потока : 496 Мбайт (84%)
Default : Да
Forced : Нет
Аудио
Идентификатор : 2
Формат : AC-3
Формат/Информация : Audio Coding 3
Расширение режима : CM (complete main)
Параметр Endianness формата : Big
Идентификатор кодека : A_AC3
Продолжительность : 1 ч. 33 м.
Вид битрейта : Постоянный
Битрейт : 128 Кбит/сек
Каналы : 2 канала
Расположение каналов : Front: L R
Частота : 44, 1 КГц
Метод сжатия : С потерями
Размер потока : 85, 7 Мбайт (14%)
Язык : Russian
Default : Да
Forced : Нет
Скриншоты

Залил: makkaronni

Онлайн видео Мы с дедушкой (2014) WEBRip


Размер скачиваемого торрента: 593.02 MB (621829257 Bytes)

Мы с дедушкой (2014) WEBRip-AVC
загрузка...
Рейтинг →
 (голосов: 1, оценка 5/5, голосовать можно 1 раз )

Другие торренты по теме:



    Комментарии (0):

    Информация

    Информация

      Посетители, находящиеся в группе Гости, не могут оставлять комментарии в данной новости.

      ↓ Меню



      ↓ Опрос

      А Вы добавили сайт в закладки?
      Да
      Не


      Top 10 за месяц (Фильмы)