.
Авторизация | Регистрация
Хочешь лучшие торренты? Добавь свой email!
Добавить
» » Ветер забвения (1989) DVB от AND03AND скачать торрент бесплатно




    Ветер забвения (1989) DVB от AND03AND скачать торрент бесплатно

    Опубликовал: Админ | Дата: 15-07-2016, 14:43 | Просмотров: 58



    Детально о кино
    Русское название: Ветер забвения
    Создали в: 1989
    Категория жанра: философский, арт-хаус
    Главный режиссер: Арутюн Хачатрян

    Актеры
    Рубен Ахвердян, Г. Агекян, В. Ананян, Гай Хачатрян, Лилита Аветисян, Л. Гомолко, Р. Хачатрян, А. Егикян, Микаэл Погосян, Виген Чалдранян, Владимир Мсрян, Арутюн Хачатрян
    Голос за кадром: Армен Джигарханян

    Сюжет фильма

    Герои фильма покидают Армению и отправляются в поездку по стране. Цель путешествия Рубена и Олега — найти друзей, которые когда-то покинули родину, и узнать, что заставило их искать счастье в чужих краях?
    Дополнительно:
    Запись потока *.tsс наземного цифрового телеканала Беларусь 3.
    Благодарность: за помощь с недостающим материалом Bartimeyse и PavelDAS .Обоим большое спасибо!
    Снималось в: СССР
    Киностудия: Арменфильм
    Время просмотра: 01: 34: 35
    Перевод текста: не требует
    Файл
    Кодек для видео: AVC (H264)
    Качество фильма: DVB
    Информация о видео: MPEG4 Video (H264) 720(785)x576 (4: 3) 25fps, 2 263 Kbps
    Информация о звуке: MPEG Audio 48000Hz stereo 256kbps
    Семпл:
    http://multi-up.com/1109821
    https: //www.sendspace.com/file/jfsohv
    MediaInfo

    General
    ID : 1 (0x1)
    Complete name : D: Новая земля 2Художественные фильмыВетер забвения (1989)Ветер забвения (1989).ts
    Format : MPEG-TS
    File size : 1.75 GiB
    Duration : 1h 34mn
    Overall bit rate mode : Variable
    Overall bit rate : 2 653 Kbps
    Video
    ID : 801 (0x321)
    Menu ID : 1 (0x1)
    Format : AVC
    Format/Info : Advanced Video Codec
    Format profile : Main@L3.0
    Format settings, CABAC : Yes
    Format settings, ReFrames : 4 frames
    Format settings, GOP : M=4, N=24
    Codec ID : 27
    Duration : 1h 34mn
    Bit rate : 2 263 Kbps
    Width : 720 pixels
    Height : 576 pixels
    Display aspect ratio : 4: 3
    Frame rate : 25.000 fps
    Standard : PAL
    Color space : YUV
    Chroma subsampling : 4: 2: 0
    Bit depth : 8 bits
    Scan type : MBAFF
    Scan order : Top Field First
    Bits/(Pixel*Frame) : 0.218
    Stream size : 1.50 GiB (85%)
    Color primaries : BT.601 PAL
    Transfer characteristics : BT.470 System B, BT.470 System G
    Matrix coefficients : BT.601
    Color range : Limited
    Audio
    ID : 802 (0x322)
    Menu ID : 1 (0x1)
    Format : MPEG Audio
    Format version : Version 1
    Format profile : Layer 2
    Codec ID : 3
    Duration : 1h 34mn
    Bit rate mode : Constant
    Bit rate : 256 Kbps
    Channel(s) : 2 channels
    Sampling rate : 48.0 KHz
    Compression mode : Lossy
    Stream size : 173 MiB (10%)
    Language : English

    Скриншоты

    Залил: AND03AND

    Онлайн видео Хардкор


    Размер скачиваемого торрента: 1.75 GB (1882135116 Bytes)

    Ветер забвения (1989) DVB от AND03AND
    загрузка...
    Рейтинг →
     (голосов: 1, оценка 4/5, голосовать можно 1 раз )

    Другие торренты по теме:

  • Ветер забвения / 1989 / РУ / DVB


    • Комментарии (0):

      Информация

      Информация

        Посетители, находящиеся в группе Гости, не могут оставлять комментарии в данной новости.

        ↓ Меню



        ↓ Опрос

        А Вы добавили сайт в закладки?
        Да
        Не


        Top 10 за месяц (Фильмы)