.
Авторизация | Регистрация
Хочешь лучшие торренты? Добавь свой email!
Добавить
» » На бойком месте (1955) SATRip от New-Team скачать торрент бесплатно




    На бойком месте (1955) SATRip от New-Team скачать торрент бесплатно

    Опубликовал: Админ | Дата: 15-07-2016, 14:42 | Просмотров: 63



    Снималось в: СССР
    Создали в: Мосфильм
    Категория жанра: комедия
    Создали в: 1955
    Время просмотра: 01: 35: 30
    Перевод текста: Не требуется
    Субтитры подготовлены: нет
    Оригинальная аудиодорожка: русский
    Главный режиссер: Елена Скачко, Ольга Викландт, Алексей Сахаров

    Актеры

    Михаил Названов, Борис Терентьев, Ольга Викландт, Марина Кузнецова, Сергей Тихонравов, Петр Березов, Борис Белов, Виктор Машков, Владимир Торстенсен, Марк Гольцин, Юлиан Козловский...
    Полный список актёров
    Описание:
    Фильм-спектакль по одноименной пьесе А.Островского в постановке Московского драматического театра имени А.С.Пушкина.
    На бойком месте устроил свой постоялый двор Вукол Ермолаевич Бессудный: днем - хлебосольный хозяин, ночью - разбойник и вор. Привечает он богатых купцов, опаивает сонным зельем да грабит их на лесной дороге. А жена его Евгения Мироновна, как уедет Вукол на ночной промысел, ждет в горнице любовника-красавца помещика Миловидова. Любит молодого барина и сестра Вукола Аннушка. Глухие леса, суровые нравы, купеческая молодецкая удаль, женская ревность… Жди беды!



    Источник: DVB
    Качество фильма видео: SATRip
    Тип видео видео: AVI
    Информация о видео: 576x432 (4: 3), 25 fps, XviD ~ 953 kbps avg, 0.153 bit/pixel
    Информация о звуке: 48 kHz, MP3 2.0, 128 kbps
    Раздача от:
    MediaInfo

    Общее
    Полное имя : Na.boykom.meste.1955.SATRip-745_New-team_by_AVP_Studio.avi
    Формат : AVI
    Формат/Информация : Audio Video Interleave
    Размер файла : 745 Мбайт
    Продолжительность : 1 ч. 35 м.
    Общий поток : 1091 Кбит/сек
    Программа кодирования : VirtualDubMod 1.5.10.3 | www.virtualdub-fr.org || (build 2550/release)
    Библиотека кодирования : VirtualDubMod build 2550/release
    Видео
    Идентификатор : 0
    Формат : MPEG-4 Visual
    Профиль формата : Advanced Simple@L5
    Параметр BVOP формата : 1
    Параметр QPel формата : Нет
    Параметр GMC формата : Без точки перехода
    Параметр матрицы формата : Выборочная
    Идентификатор кодека : XVID
    Идентификатор кодека/Подсказка : XviD
    Продолжительность : 1 ч. 35 м.
    Битрейт : 953 Кбит/сек
    Ширина : 576 пикселей
    Высота : 432 пикселя
    Соотношение сторон : 4: 3
    Частота кадров : 25, 000 кадров/сек
    Цветовое пространство : YUV
    Субдискретизация насыщенности : 4: 2: 0
    Битовая глубина : 8 бит
    Тип развёртки : Прогрессивная
    Метод сжатия : С потерями
    Бит/(Пиксели*Кадры) : 0.153
    Размер потока : 651 Мбайт (87%)
    Библиотека кодирования : XviD 1.2.1 (UTC 2008-12-04)
    Аудио
    Идентификатор : 1
    Формат : MPEG Audio
    Версия формата : Version 1
    Профиль формата : Layer 3
    Идентификатор кодека : 55
    Идентификатор кодека/Подсказка : MP3
    Продолжительность : 1 ч. 35 м.
    Вид битрейта : Постоянный
    Битрейт : 128 Кбит/сек
    Каналы : 2 канала
    Частота : 48, 0 КГц
    Метод сжатия : С потерями
    Размер потока : 87, 4 Мбайт (12%)
    Выравнивание : Соединение по промежуткам
    Продолжительность промежутка : 40 мс. (1, 00 видеокадр)
    Время предзагрузки промежутка : 504 мс.
    Библиотека кодирования : LAME3.99r
    Залил: AVPStudio

    Онлайн видео На бойком месте (1955) SATRip от New


    Размер скачиваемого торрента: 745.11 MB (781303808 Bytes)


    На бойком месте (1955) SATRip от New-Team
    загрузка...
    Рейтинг →
     (голосов: 1, оценка 4/5, голосовать можно 1 раз )

    Другие торренты по теме:



      Комментарии (0):

      Информация

      Информация

        Посетители, находящиеся в группе Гости, не могут оставлять комментарии в данной новости.

        ↓ Меню



        ↓ Опрос

        А Вы добавили сайт в закладки?
        Да
        Не


        Top 10 за месяц (Фильмы)