.
Авторизация | Регистрация
Хочешь лучшие торренты? Добавь свой email!
Добавить
» » Бэтмен против Супермена: На заре справедливости / Batman v Superman: Dawn of Justice (2016) BDRip | Расширенная версия | A скачать торрент бесплатно




    Бэтмен против Супермена: На заре справедливости / Batman v Superman: Dawn of Justice (2016) BDRip | Расширенная версия | A скачать торрент бесплатно

    Опубликовал: Админ | Дата: 13-07-2016, 05:00 | Просмотров: 34



    Who will win?
    Детально о кино
    Русское название: Бэтмен против Супермена: На заре справедливости
    Русское название в мировом прокате: Batman v Superman: Dawn of Justice
    Создали в: 2016
    Категория жанра: Фантастика, фэнтези, боевик, приключения
    Главный режиссер: Зак Снайдер

    Актеры
    Генри Кавилл, Бен Аффлек, Галь Гадот, Джейсон Момоа, Эми Адамс, Джесси Айзенберг, Джеффри Дин Морган, Джена Мэлоун, Эзра Миллер

    Сюжет фильма

    Опасаясь, что действия богоподобного супергероя так и останутся бесконтрольными, грозный и могущественный страж Готэм Сити бросает вызов самому почитаемому в наши дни спасителю Метрополиса, в то время как весь остальной мир решает, какой герой ему по-настоящему нужен. И пока Бэтмен и Супермен пребывают в состоянии войны друг с другом, возникает новая угроза, которая ставит человечество под самую большую опасность, с которой оно когда-либо сталкивалось.

    Снималось в: США
    Киностудия: Atlas Entertainment, DC Comics, DC Entertainment, RatPac-Dune Entertainment, Warner Bros. Pictures
    Время просмотра: 03: 02: 31
    Перевод текста: Авторский (одноголосый, закадровый)А.Матвеев
    Файл
    Качество фильма: BDRip
    Кодек для видео: XviD
    Информация о видео: 720x304 (2, 35: 1), 23, 976 fps, XviD ~1319 kbps avg, 0.251 bit/pixel
    Информация о звуке: 48 kHz, AC3, 6 ch, ~384.00 kbps avg | русский |Авторский (одноголосый, закадровый)А.Матвеев
    Субтитры: Русские (внешние: Форс. + Полные)
    Семпл
    Инфо-файл
    Общее
    Полное имя : Batman.v.Superman.Dawn.of.Justice.2016.Extended.Ultimate.Edition.BDRip.2.18.by Vovan366(ExKinoRay)Batman.v.Superman.Dawn.of.Justice.2016.Extended.Ultimate.Edition.BDRip.2.18.ExKinoRay.avi
    Формат : AVI
    Формат/Информация : Audio Video Interleave
    Профиль формата : OpenDML
    Размер файла : 2, 19 Гбайт
    Продолжительность : 3 ч. 2 м.
    Общий поток : 1715 Кбит/сек
    Программа кодирования : VirtualDubMod 1.5.10.3 (build 2550/release)
    Библиотека кодирования : VirtualDubMod build 2550/release
    Видео
    Идентификатор : 0
    Формат : MPEG-4 Visual
    Профиль формата : Advanced Simple@L5
    Параметр BVOP формата : 2
    Параметр QPel формата : Нет
    Параметр GMC формата : Без точки перехода
    Параметр матрицы формата : Выборочная
    Режим смешивания : Сжатый битовый поток
    Идентификатор кодека : XVID
    Идентификатор кодека/Подсказка : XviD
    Продолжительность : 3 ч. 2 м.
    Битрейт : 1319 Кбит/сек
    Ширина : 720 пикселей
    Высота : 304 пикселя
    Соотношение сторон : 2, 35: 1
    Частота кадров : 23, 976 (23976/1000) кадра/сек
    Цветовое пространство : YUV
    Субдискретизация насыщенности : 4: 2: 0
    Битовая глубина : 8 бит
    Тип развёртки : Прогрессивная
    Метод сжатия : С потерями
    Бит/(Пиксели*Кадры) : 0.251
    Размер потока : 1, 68 Гбайт (77%)
    Библиотека кодирования : XviD 73
    Аудио
    Идентификатор : 1
    Формат : AC-3
    Формат/Информация : Audio Coding 3
    Расширение режима : CM (complete main)
    Параметр Endianness формата : Big
    Идентификатор кодека : 2000
    Продолжительность : 3 ч. 2 м.
    Вид битрейта : Постоянный
    Битрейт : 384 Кбит/сек
    Каналы : 6 каналов
    Расположение каналов : Front: L C R, Side: L R, LFE
    Частота : 48, 0 КГц
    Частота кадров : 31, 250 кадров/сек (1536 spf)
    Метод сжатия : С потерями
    Размер потока : 501 Мбайт (22%)
    Выравнивание : Разделение по промежуткам
    Продолжительность промежутка : 42 мс. (1, 00 видеокадр)
    Время предзагрузки промежутка : 500 мс.
    Скриншоты

    Релиз подготовил:
    Автор рипа: Vovan366

    Онлайн видео Бэтмен против Супермена: На заре справедливости


    Размер скачиваемого торрента: 2.19 GB (2347741754 Bytes)

    Бэтмен против Супермена: На заре справедливости/Batman v Superman: Dawn of Justice (2016) BDRip | Расширенная версия | A
    загрузка...
    Рейтинг →
     (голосов: 1, оценка 5/5, голосовать можно 1 раз )

    Другие торренты по теме:

  • Бэтмен против Дракулы / The Batman vs Dracula: The Animated Movie (2005) WEB-DLRip от Deadmauvlad | D | iTunes
  • Бэтмен против Робина / Batman vs. Robin (2015) HDRip | L
  • Бэтмен против Робина / Batman vs. Robin (2015) WEB-DL 1080p | L1
  • Бэтмен против Робина / Batman vs. Robin (2015) HDRip | L1
  • Бэтмен против Робина / Batman vs. Robin (2015) WEB-DLRip | Sub
  • Бэтмен против Супермена: На заре справедливости / Batman v Superman: Dawn of Justice (2016) DCPrip | 2K, Hi10P | Тизер-трейлер
  • Бэтмен против Робина / Batman vs. Robin (2015) BDRemux 1080p
  • Бэтмен против Супермена: На заре справедливости / Batman v Superman: Dawn of Justice (2016) WEBRip 1080p | Трейлер#3


    • Комментарии (0):

      Информация

      Информация

        Посетители, находящиеся в группе Гости, не могут оставлять комментарии в данной новости.

        ↓ Меню



        ↓ Опрос

        А Вы добавили сайт в закладки?
        Да
        Не


        Top 10 за месяц (Фильмы)