.
Авторизация | Регистрация
Хочешь лучшие торренты? Добавь свой email!
Добавить
» » Хардкор / Hardcore Henry (2015) WEB-DL 1080p от ExKinoRay | iTunes скачать торрент бесплатно




    Хардкор / Hardcore Henry (2015) WEB-DL 1080p от ExKinoRay | iTunes скачать торрент бесплатно

    Опубликовал: Админ | Дата: 12-07-2016, 05:00 | Просмотров: 51



    Детально о кино
    Русское название: Хардкор
    Русское название в мировом прокате: Hardcore Henry
    Создали в: 2015
    Категория жанра: Боевик, фантастика
    Главный режиссер: Илья Найшуллер

    Актеры
    Шарлто Копли, Данила Козловский, Хейли Беннетт, Андрей Дементьев, Сергей Шнуров, Кирилл Серебренников, Александр Паль, Светлана Устинова, Даша Чаруша, Равшана Куркова, Полина Филоненко, Евгений Баженов, Константин Хабенский, Михаил Изотов, Сергей Валяев, Сергей Мезенцев, Виталий Воскресенский, Алена Чехова, Леонид Парфёнов, Тим Рот

    Сюжет фильма

    Прекрасная супружеская жизнь рядом с очаровательной Эстель — это все, что помнит главный герой после того, как просыпается в неизвестной научной лаборатории, где в чувства его приводит собственная жена. Но супруга тут же оказывается похищенной, и ничего не понимающий главный герой Генри уже вынужден преследовать монстра Акана, который украл его жену. Теперь ради достижения цели Генри готов на многое. Но позже оказывается, что не только он один является врагом для Акана. У подозрительного Джимми тоже свои планы на злодея. Теперь вместе ребятам предстоит спасти Эстель и предотвратить попытку задействовать армию киборгов в борьбе с человечеством. Им предстоит бороться с самим воплощением зла.

    Снималось в: Россия, США
    Киностудия: Базелевс Продакшн, Robusto
    Время просмотра: 01: 36: 25
    Перевод текста: Дублированный | iTunes
    Файл
    Кодек для видео: MPEG-4
    Качество фильма: WEB-DL 1080p
    Информация о видео: 1920x1032, 5223 Kbit/s, 23.976 fps
    Информация о звуке:
    Информация о звуке #01: 48 kHz, AC3, 5.1, 384 Kbps | Дублированный, iTunes |
    Информация о звуке #02: 48 kHz, AC3, 5.1, 384 kbps | Оригинал |
    Субтитры: Английские
    Релиз подготовил: Автор релиза:
    MI
    General
    Unique ID : 220134632364104128728115550371703432676 (0xA59C6355B7433434A0D040B4076C25E4)
    Complete name : F: VideoHardcore.Henry.2016.WEB-DL.1080p.ExKinoRay.mkv
    Format : Matroska
    Format version : Version 4/Version 2
    File size : 4.05 GiB
    Duration : 1h 36mn
    Overall bit rate : 5 994 Kbps
    Movie name : Hardcore.Henry.2016.WEB-DL.1080p.ExKinoRay
    Encoded date : UTC 2016-07-11 22: 45: 21
    Writing application : mkvmerge v8.3.0 (;Over the Horizon;) 64bit
    Writing library : libebml v1.3.1 + libmatroska v1.4.2
    Video
    ID : 1
    Format : AVC
    Format/Info : Advanced Video Codec
    Format profile : High@L4
    Format settings, CABAC : Yes
    Format settings, ReFrames : 4 frames
    Codec ID : V_MPEG4/ISO/AVC
    Duration : 1h 36mn
    Bit rate : 5 223 Kbps
    Width : 1 920 pixels
    Height : 1 032 pixels
    Display aspect ratio : 1.85: 1
    Frame rate mode : Constant
    Frame rate : 23.976 fps
    Color space : YUV
    Chroma subsampling : 4: 2: 0
    Bit depth : 8 bits
    Scan type : Progressive
    Bits/(Pixel*Frame) : 0.110
    Stream size : 3.53 GiB (87%)
    Title : Hardcore.Henry.2015.1080p.WEB-DL.DD5.1.H264-RARBG
    Language : English
    Default : Yes
    Forced : No
    Color range : Limited
    Color primaries : BT.709
    Transfer characteristics : BT.709
    Matrix coefficients : BT.709
    Audio #1
    ID : 2
    Format : AC-3
    Format/Info : Audio Coding 3
    Mode extension : CM (complete main)
    Format settings, Endianness : Big
    Codec ID : A_AC3
    Duration : 1h 36mn
    Bit rate mode : Constant
    Bit rate : 384 Kbps
    Channel(s) : 6 channels
    Channel positions : Front: L C R, Side: L R, LFE
    Sampling rate : 48.0 KHz
    Frame rate : 31.250 fps (1536 spf)
    Compression mode : Lossy
    Stream size : 266 MiB (6%)
    Title : iTunes
    Language : Russian
    Default : Yes
    Forced : No
    Audio #2
    ID : 3
    Format : AC-3
    Format/Info : Audio Coding 3
    Mode extension : CM (complete main)
    Format settings, Endianness : Big
    Codec ID : A_AC3
    Duration : 1h 36mn
    Bit rate mode : Constant
    Bit rate : 384 Kbps
    Channel(s) : 6 channels
    Channel positions : Front: L C R, Side: L R, LFE
    Sampling rate : 48.0 KHz
    Frame rate : 31.250 fps (1536 spf)
    Compression mode : Lossy
    Stream size : 266 MiB (6%)
    Title : Original
    Language : English
    Default : No
    Forced : No
    Text #1
    ID : 4
    Format : UTF-8
    Codec ID : S_TEXT/UTF8
    Codec ID/Info : UTF-8 Plain Text
    Duration : 1h 28mn
    Bit rate : 44 bps
    Count of elements : 780
    Stream size : 29.0 KiB (0%)
    Title : Full
    Language : English
    Default : No
    Forced : No
    Text #2
    ID : 5
    Format : ASS
    Codec ID : S_TEXT/ASS
    Codec ID/Info : Advanced Sub Station Alpha
    Duration : 1h 28mn
    Bit rate : 60 bps
    Count of elements : 785
    Compression mode : Lossless
    Stream size : 38.9 KiB (0%)
    Title : SDH
    Language : English
    Default : No
    Forced : No
    Menu
    00: 00: 00.000 : en: Opening Sequence
    00: 04: 00.000 : en: I Love You Henry
    00: 12: 07.000 : en: Mercenaries
    00: 18: 41.000 : en: I;m Kidding!
    00: 26: 08.000 : en: You;re Half Machine
    00: 34: 15.000 : en: I Can;t Do It
    00: 39: 20.000 : en: Just Say Yes
    00: 43: 57.000 : en: I Was So Scared
    00: 48: 52.000 : en: Reboot
    00: 53: 25.000 : en: Don;t Compromise My Lab
    00: 59: 36.000 : en: Under My Skin
    01: 07: 16.000 : en: No More Lab
    01: 11: 20.000 : en: The Memory Block
    01: 15: 30.000 : en: The Soldiers
    01: 24: 06.000 : en: You Didn;t Make History
    01: 29: 27.000 : en: End Credits
    Скриншоты


    Онлайн видео Хардкор


    Размер скачиваемого торрента: 4.05 GB (4349974964 Bytes)

    Хардкор/Hardcore Henry (2015) WEB-DL 1080p от ExKinoRay | iTunes
    загрузка...
    Рейтинг →
     (голосов: 1, оценка 5/5, голосовать можно 1 раз )

    Другие торренты по теме:

  • Хардкор / Hardcore Henry (2015) CAMRip | A
  • Хардкор / Hardcore Henry (2015)
  • Хардкор / Hardcore Henry / 2015 / ДБ (Line) / WEB-DLRip
  • Хардкор / Hardcore Henry / 2015 / ДБ (Line) / WEB-DL (1080p)
  • Хардкор / Hardcore Henry (2015) WEB-DLRip-AVC от ExKinoRay | D | Line
  • Хардкор / Hardcore Henry (2015) WEB-DLRip от Scarabey | Line
  • Хардкор / Hardcore Henry (2015) WEB-DLRip-AVC от Scarabey | Line
  • Хардкор / Hardcore Henry (2015) WEB-DLRip | iTunes


    • Комментарии (0):

      Информация

      Информация

        Посетители, находящиеся в группе Гости, не могут оставлять комментарии в данной новости.

        ↓ Меню



        ↓ Опрос

        А Вы добавили сайт в закладки?
        Да
        Не


        Top 10 за месяц (Фильмы)