.
Авторизация | Регистрация
Хочешь лучшие торренты? Добавь свой email!
Добавить
» » Оставленные / The Leftovers (2014-2015) HDTVRip от Generalfilm | КПК | SDI Media скачать торрент бесплатно




    Оставленные / The Leftovers (2014-2015) HDTVRip от Generalfilm | КПК | SDI Media скачать торрент бесплатно

    Опубликовал: Админ | Дата: 11-07-2016, 14:38 | Просмотров: 28



    Детально о кино
    Русское название: Оставленные
    Русское название в мировом прокате: The Leftovers
    Создали в: 2014
    Категория жанра: Фэнтези, драма, детектив
    Главный режиссер: Мими Ледер, Питер Берг, Мишель Максвелл МакЛарен

    Актеры
    Джастин Теру, Эми Бреннеман, Кристофер Экклстон, Лив Тайлер, Крис Зилка, Маргарет Куэлли, Кэрри Кун, Эмили Миде, Аманда Уоррен, Энн Дауд, Майкл Гэстон, Макс Карвер, Марселин Хьюго, Пэтерсон Джозеф, Скотт Гленн, Уэйн Дювалл, Том Нунен, Энни Цянь, Фрэнк Хартс, Дэн Флаэрти

    Сюжет фильма

    Разве может внезапно испариться сотня человек? Кажется фантастикой и каким-то безумием, но это факт. Более сотни жителей небольшого городка под названием Мейплтон неожиданно просто исчезают, оставляя всё своё имущество и вещи. Странно, загадочно и пугающе. Однако остатки населения городка должны продолжать жить дальше, хотя сделать это очень непросто. Кто знает, не постигнет ли такая же участь кого-то ещё и куда же всё-таки делись все эти люди. Пока полиция пытается дать хоть какие-то ответы на случившееся, остатки жителей постепенно приходят в себя, стараясь смириться с произошедшим, но забыть такое они точно не смогут.

    Снималось в: США
    Киностудия: Warner Bros. Television
    Время просмотра: 20 x ~ 00: 58: 00
    Перевод текста: Профессиональный (многоголосый, закадровый) SDI Media
    Файл
    Тип видео: MP4
    Качество фильма: HDTVRip | КПК
    Информация о видео: MPEG-4 AVC (x264), 640x360, ~500 kbps, 23.976 fps
    Информация о звуке: AAC LC, 48.0 KHz, 2 ch, 128 Kbps
    Субтитры: Нет
    Видеоряд чистый - без рекламы и логотипа телеканала.
    Семпл
    Скриншоты

    MI
    Complete name : E: KinoOstavlennye.AVC.KPK.GeneralfilmOstavlennye.S01.2014.AVC.HDTVRip.KPK.Amedia.GeneralfilmOstavlennye.s01e02.2014.AVC.HDTVRip.KPK.Amedia.Generalfilm.mp4
    Format : MPEG-4
    Format profile : Base Media
    Codec ID : isom
    File size : 261 MiB
    Duration : 57mn 44s
    Overall bit rate mode : Variable
    Overall bit rate : 632 Kbps
    Encoded date : UTC 2015-05-09 10: 29: 09
    Tagged date : UTC 2015-05-09 10: 29: 09
    Video
    ID : 1
    Format : AVC
    Format/Info : Advanced Video Codec
    Format profile : High@L4.1
    Format settings, CABAC : Yes
    Format settings, ReFrames : 8 frames
    Codec ID : avc1
    Codec ID/Info : Advanced Video Coding
    Duration : 57mn 44s
    Bit rate : 500 Kbps
    Maximum bit rate : 8 716 Kbps
    Width : 640 pixels
    Height : 360 pixels
    Display aspect ratio : 16: 9
    Frame rate mode : Constant
    Frame rate : 23.976 fps
    Color space : YUV
    Chroma subsampling : 4: 2: 0
    Bit depth : 8 bits
    Scan type : Progressive
    Bits/(Pixel*Frame) : 0.091
    Stream size : 206 MiB (79%)
    Writing library : x264 core 130 r2273 b3065e6
    Encoding settings : cabac=1/ref=8/deblock=1: -2: -2/analyse=0x3: 0x133/me=umh/subme=10/psy=1/psy_rd=1.00: 0.00/mixed_ref=1/me_range=24/chroma_me=1/trellis=2/8x8dct=1/cqm=0/deadzone=21, 11/fast_pskip=1/chroma_qp_offset=-2/threads=3/lookahead_threads=1/sliced_threads=0/nr=0/decimate=0/interlaced=0/bluray_compat=0/constrained_intra=0/bframes=8/b_pyramid=2/b_adapt=2/b_bias=0/direct=3/weightb=1/open_gop=0/weightp=2/keyint=240/keyint_min=121/scenecut=40/intra_refresh=0/rc_lookahead=40/rc=2pass/mbtree=1/bitrate=500/ratetol=1.0/qcomp=0.60/qpmin=0/qpmax=69/qpstep=4/cplxblur=20.0/qblur=0.5/ip_ratio=1.40/aq=1: 1.00
    Encoded date : UTC 2015-05-09 10: 29: 09
    Tagged date : UTC 2015-05-09 10: 30: 02
    Audio
    ID : 2
    Format : AAC
    Format/Info : Advanced Audio Codec
    Format profile : LC
    Codec ID : 40
    Duration : 57mn 44s
    Bit rate mode : Variable
    Bit rate : 128 Kbps
    Maximum bit rate : 163 Kbps
    Channel(s) : 2 channels
    Channel positions : Front: L R
    Sampling rate : 48.0 KHz
    Compression mode : Lossy
    Stream size : 52.9 MiB (20%)
    Encoded date : UTC 2015-05-09 10: 29: 59
    Tagged date : UTC 2015-05-09 10: 30: 02

    Релиз подготовил:
    Залил: toys_watch

    Онлайн видео Оставленные


    Размер скачиваемого торрента: 5.06 GB (5436040212 Bytes)

    Оставленные/The Leftovers (2014-2015) HDTVRip от Generalfilm | КПК | SDI Media
    загрузка...
    Рейтинг →
     (голосов: 1, оценка 3/5, голосовать можно 1 раз )

    Другие торренты по теме:

  • Оставленные / Остатки / The Leftovers (2014) HDTV 720р | Kerob скачать через торрент бесплатно
  • Оставленные / Остатки / The Leftovers (2014) HDTVRip-AVC 1080p l NewStudio скачать через торрент бесплатно
  • Оставленные / The Leftovers (2014) HDTVRip от Generalfilm | КПК | SDI Media
  • Оставленные / The Leftovers (2014) HDTVRip от Generalfilm | SDI Media
  • Оставленные (Остатки) (2 сезон: 1-3 серии из 10) / The Leftovers / 2015 / ПД (NewStudio) / HDTVRip
  • Оставленные (Остатки) (2 сезон: 1-4 серии из 10) / The Leftovers / 2015 / ПМ (BaibaKo) / HDTVRip (720p)
  • Оставленные (Остатки) (2 сезон: 7 серия из 10) / The Leftovers / 2015 / ПМ (SDI Media), СТ / HDTV (1080i)
  • Оставленные / The Leftovers (2015) HDTVRip 1080p | Amedia


    • Комментарии (0):

      Информация

      Информация

        Посетители, находящиеся в группе Гости, не могут оставлять комментарии в данной новости.

        ↓ Меню



        ↓ Опрос

        А Вы добавили сайт в закладки?
        Да
        Не


        Top 10 за месяц (Фильмы)