.
Авторизация | Регистрация
Хочешь лучшие торренты? Добавь свой email!
Добавить
» » Высотка / High-Rise (2015) BDRip 720p от ExKinoRay | iTunes скачать торрент бесплатно




    Высотка / High-Rise (2015) BDRip 720p от ExKinoRay | iTunes скачать торрент бесплатно

    Опубликовал: Админ | Дата: 11-07-2016, 05:00 | Просмотров: 44



    Детально о кино
    Русское название: Высотка
    Русское название в мировом прокате: High-Rise
    Создали в: 2015
    Категория жанра: Драма, триллер, фантастика
    Главный режиссер: Бен Уитли

    Актеры
    Том Хиддлстон, Джереми Айронс, Сиенна Миллер, Люк Эванс, Элизабет Мосс, Джеймс Пьюрфой, Кили Хоуз, Питер Фердинандо, Сиенна Гиллори, Рис Шерсмит, Энцо Чиленти, Август Прю, Рентон Скиннер, Стэйси Мартин, Тони Вэй, Лейла Миммек, Луис Сюк, Нил Мэскелл, Александра Уивер, Джулия Дикин

    Сюжет фильма

    Элитная высотка — идеальная модель мира будущего. Здесь есть все для комфортной и роскошной жизни. Но зависть, соперничество, жажда острых ощущений постепенно разжигают открытую вражду между жителями высотки, заставляя забыть о законах морали даже лучших из них.

    Снималось в: Великобритания, Ирландия, Бельгия
    Киностудия: British Film Institute (BFI), Film4, HanWay Films
    Время просмотра: 01: 58: 36
    Перевод текста: Дублированный | iTunes
    Файл
    Кодек для видео: x264
    Качество фильма: BDRip 720p
    Информация о видео: 1280x536, 3680 Kbit/s, 24.000 fps
    Информация о звуке:
    Информация о звуке #01: 48 kHz, AC3, 5.1, 384 Kbps | Дублированный, iTunes |
    Информация о звуке #02: 48 kHz, DTS, 5.1, 768 kbps | Оригинал |
    Субтитры: Английские
    Релиз подготовил: Автор релиза:
    MI
    General
    Unique ID : 204672915953191733871908987815762315967 (0x99FA91DC0C877D14A4D9EBB0B407CABF)
    Complete name : F: VideoHigh-Rise.2015.BDRip.720p.ExKinoRay.mkv
    Format : Matroska
    Format version : Version 4/Version 2
    File size : 4.00 GiB
    Duration : 1h 58mn
    Overall bit rate : 4 834 Kbps
    Movie name : High-Rise.2015.BDRip.720p.ExKinoRay
    Encoded date : UTC 2016-07-10 19: 32: 34
    Writing application : mkvmerge v8.3.0 (;Over the Horizon;) 64bit
    Writing library : libebml v1.3.1 + libmatroska v1.4.2
    Video
    ID : 1
    Format : AVC
    Format/Info : Advanced Video Codec
    Format profile : High@L4.1
    Format settings, CABAC : Yes
    Format settings, ReFrames : 5 frames
    Codec ID : V_MPEG4/ISO/AVC
    Duration : 1h 58mn
    Bit rate : 3 680 Kbps
    Width : 1 280 pixels
    Height : 536 pixels
    Display aspect ratio : 2.40: 1
    Frame rate mode : Constant
    Frame rate : 24.000 fps
    Color space : YUV
    Chroma subsampling : 4: 2: 0
    Bit depth : 8 bits
    Scan type : Progressive
    Bits/(Pixel*Frame) : 0.223
    Stream size : 3.05 GiB (76%)
    Writing library : x264 core 142 r2431+42 c69a006 tMod 8-bit@all X86_64
    Encoding settings : cabac=1/ref=5/deblock=1: -3: -3/analyse=0x3: 0x133/me=umh/subme=10/psy=1/fade_compensate=0.00/psy_rd=1.00: 1.00/mixed_ref=1/me_range=32/chroma_me=1/trellis=2/8x8dct=1/cqm=0/deadzone=21, 11/fast_pskip=0/chroma_qp_offset=-4/threads=16/lookahead_threads=1/sliced_threads=0/nr=0/decimate=0/interlaced=0/bluray_compat=0/constrained_intra=0/fgo=0/bframes=5/b_pyramid=2/b_adapt=2/b_bias=0/direct=3/weightb=1/open_gop=0/weightp=2/keyint=240/keyint_min=24/scenecut=40/intra_refresh=0/rc_lookahead=150/rc=2pass/mbtree=0/bitrate=3680/ratetol=1.0/qcomp=0.60/qpmin=0: 0: 0/qpmax=69: 69: 69/qpstep=4/cplxblur=20.0/qblur=0.5/vbv_maxrate=40000/vbv_bufsize=30000/nal_hrd=none/filler=0/ip_ratio=1.20/pb_ratio=1.30/aq=2: 0.68/aq-sensitivity=10.00/aq-factor=1.00: 1.00: 1.00/aq2=0/aq3=0
    Language : English
    Default : Yes
    Forced : No
    Color range : Limited
    Color primaries : BT.709
    Transfer characteristics : BT.709
    Matrix coefficients : BT.709
    Audio #1
    ID : 2
    Format : AC-3
    Format/Info : Audio Coding 3
    Mode extension : CM (complete main)
    Format settings, Endianness : Big
    Codec ID : A_AC3
    Duration : 1h 58mn
    Bit rate mode : Constant
    Bit rate : 384 Kbps
    Channel(s) : 6 channels
    Channel positions : Front: L C R, Side: L R, LFE
    Sampling rate : 48.0 KHz
    Frame rate : 31.250 fps (1536 spf)
    Compression mode : Lossy
    Delay relative to video : 8ms
    Stream size : 326 MiB (8%)
    Title : DUB iTunes
    Language : Russian
    Default : Yes
    Forced : No
    Audio #2
    ID : 3
    Format : DTS
    Format/Info : Digital Theater Systems
    Mode : 16
    Format settings, Endianness : Big
    Codec ID : A_DTS
    Duration : 1h 58mn
    Bit rate mode : Constant
    Bit rate : 768 Kbps
    Channel(s) : 6 channels
    Channel positions : Front: L C R, Side: L R, LFE
    Sampling rate : 48.0 KHz
    Frame rate : 93.750 fps (512 spf)
    Bit depth : 24 bits
    Compression mode : Lossy
    Stream size : 651 MiB (16%)
    Title : Original
    Language : English
    Default : No
    Forced : No
    Text
    ID : 4
    Format : UTF-8
    Codec ID : S_TEXT/UTF8
    Codec ID/Info : UTF-8 Plain Text
    Duration : 1h 53mn
    Bit rate : 44 bps
    Count of elements : 1119
    Stream size : 37.4 KiB (0%)
    Title : SDH
    Language : English
    Default : No
    Forced : No
    Menu
    00: 00: 00.000 : en: 00: 00: 00.000
    00: 09: 13.625 : en: 00: 09: 13.625
    00: 16: 26.583 : en: 00: 16: 26.583
    00: 27: 49.750 : en: 00: 27: 49.750
    00: 36: 56.417 : en: 00: 36: 56.417
    00: 44: 36.083 : en: 00: 44: 36.083
    00: 54: 35.292 : en: 00: 54: 35.292
    01: 04: 43.625 : en: 01: 04: 43.625
    01: 14: 35.833 : en: 01: 14: 35.833
    01: 24: 04.583 : en: 01: 24: 04.583
    01: 35: 42.833 : en: 01: 35: 42.833
    01: 44: 16.125 : en: 01: 44: 16.125
    Скриншоты


    Онлайн видео Высотка


    Размер скачиваемого торрента: 4.00 GB (4299582873 Bytes)

    Высотка/High-Rise (2015) BDRip 720p от ExKinoRay | iTunes
    загрузка...
    Рейтинг →
     (голосов: 1, оценка 5/5, голосовать можно 1 раз )

    Другие торренты по теме:

  • Высотка / High-Rise (2015) WEB-DLRip | D | звук с TS
  • Высотка / High-Rise (2015)
  • Высотка / High-Rise (2015) WEB-DLRip от MegaPeer | P
  • Высотка / High-Rise (2015) WEB-DL 720p | D | Line
  • Высотка / High-Rise (2015) WEB-DLRip ot Portablius | P
  • Высотка / High-Rise (2015) WEB-DL 720p | iTunes
  • Высотка / High-Rise (2015) WEB-DLRip от MegaPeer | iTunes
  • Высотка / High-Rise (2015) WEB-DLRip от Scarabey | iTunes


    • Комментарии (0):

      Информация

      Информация

        Посетители, находящиеся в группе Гости, не могут оставлять комментарии в данной новости.

        ↓ Меню



        ↓ Опрос

        А Вы добавили сайт в закладки?
        Да
        Не


        Top 10 за месяц (Фильмы)