.
Авторизация | Регистрация
Хочешь лучшие торренты? Добавь свой email!
Добавить
» » Зелёная комната / Green Room (2015) BDRip 1080p от ExKinoRay | A скачать торрент бесплатно




    Зелёная комната / Green Room (2015) BDRip 1080p от ExKinoRay | A скачать торрент бесплатно

    Опубликовал: Админ | Дата: 8-07-2016, 05:00 | Просмотров: 69



    Детально о кино
    Русское название: Зелёная комната
    Русское название в мировом прокате: Green Room
    Создали в: 2015
    Категория жанра: Триллер, криминал
    Главный режиссер: Джереми Солнье

    Актеры
    Антон Ельчин, Джо Коул, Алиа Шокат, Каллум Тернер, Дэвид В. Томпсон, Марк Веббер, Мэйкон Блэр, Эрик Эдельштейн, Майкл Дрэйпер

    Сюжет фильма

    Панк-группа из четырёх человек ездит по Америке на небольшом фургончике. Дают концерты где придётся и считают копейки. И тут выпадает возможность подзаработать на концерте в общине скинхедов чуть больше, чем обычно. Конечно же они соглашаются. Всё, вроде бы проходит неплохо, но после концерта они становятся свидетелями убийства в гримёрке с зелёными стенами.

    Снималось в: США
    Киностудия: Broad Green Pictures, Film Science
    Время просмотра: 01: 35: 01
    Перевод текста: Авторский одноголосый (закадровый) | Дмитрий Есарев
    Файл
    Кодек для видео: x264
    Качество фильма: BDRip 1080p
    Информация о видео: 1920x800, 11.2 Mbit/s, 23.976 fps
    Информация о звуке:
    Информация о звуке #01: 48 kHz, AC3, 5.1, 448 Kbps | Авторский одноголосый (закадровый) | Дмитрий Есарев (без цензуры)|
    Информация о звуке #02: 48 kHz, AC3, 5.1, 448 Kbps | Авторский одноголосый (закадровый) | Дмитрий Есарев (цензура)|
    Информация о звуке #03: 48 kHz, DTS, 5.1, 1510 kbps | Оригинал |
    Субтитры: Русские, английские
    Релиз подготовил: Автор релиза:

    MI
    General
    Unique ID : 249102747914204083917886484153500625707 (0xBB6771B366F9C5678A9E93372F7EEB2B)
    Complete name : F: VideoGreen.Room.2015.BDRip.1080p.ExKinoRay.mkv
    Format : Matroska
    Format version : Version 4/Version 2
    File size : 9.01 GiB
    Duration : 1h 35mn
    Overall bit rate : 13.6 Mbps
    Movie name : Green.Room.2015.BDRip.1080p.ExKinoRay
    Encoded date : UTC 2016-07-07 18: 25: 02
    Writing application : mkvmerge v8.3.0 (;Over the Horizon;) 64bit
    Writing library : libebml v1.3.1 + libmatroska v1.4.2
    Video
    ID : 1
    Format : AVC
    Format/Info : Advanced Video Codec
    Format profile : High@L4.1
    Format settings, CABAC : Yes
    Format settings, ReFrames : 5 frames
    Codec ID : V_MPEG4/ISO/AVC
    Duration : 1h 35mn
    Bit rate : 11.2 Mbps
    Width : 1 920 pixels
    Height : 800 pixels
    Display aspect ratio : 2.40: 1
    Frame rate mode : Constant
    Frame rate : 23.976 (24000/1001) fps
    Color space : YUV
    Chroma subsampling : 4: 2: 0
    Bit depth : 8 bits
    Scan type : Progressive
    Bits/(Pixel*Frame) : 0.303
    Stream size : 7.41 GiB (82%)
    Writing library : x264 core 146 r2538 121396c
    Encoding settings : cabac=1/ref=5/deblock=1: -3: -3/analyse=0x3: 0x133/me=tesa/subme=11/psy=1/psy_rd=1.04: 0.00/mixed_ref=1/me_range=32/chroma_me=1/trellis=2/8x8dct=1/cqm=0/deadzone=21, 11/fast_pskip=0/chroma_qp_offset=-2/threads=60/lookahead_threads=6/sliced_threads=0/nr=0/decimate=0/interlaced=0/bluray_compat=0/constrained_intra=0/bframes=10/b_pyramid=2/b_adapt=2/b_bias=0/direct=3/weightb=1/open_gop=0/weightp=2/keyint=240/keyint_min=23/scenecut=40/intra_refresh=0/rc_lookahead=150/rc=crf/mbtree=0/crf=17.7/qcomp=0.60/qpmin=0/qpmax=69/qpstep=4/vbv_maxrate=62500/vbv_bufsize=78125/crf_max=0.0/nal_hrd=none/filler=0/ip_ratio=1.40/pb_ratio=1.30/aq=1: 0.80
    Language : English
    Default : Yes
    Forced : No
    Audio #1
    ID : 2
    Format : AC-3
    Format/Info : Audio Coding 3
    Mode extension : CM (complete main)
    Format settings, Endianness : Big
    Codec ID : A_AC3
    Duration : 1h 35mn
    Bit rate mode : Constant
    Bit rate : 448 Kbps
    Channel(s) : 6 channels
    Channel positions : Front: L C R, Side: L R, LFE
    Sampling rate : 48.0 KHz
    Frame rate : 31.250 fps (1536 spf)
    Compression mode : Lossy
    Stream size : 305 MiB (3%)
    Title : AVO D.Esarev.no.cens.
    Language : Russian
    Default : Yes
    Forced : No
    Audio #2
    ID : 3
    Format : AC-3
    Format/Info : Audio Coding 3
    Mode extension : CM (complete main)
    Format settings, Endianness : Big
    Codec ID : A_AC3
    Duration : 1h 35mn
    Bit rate mode : Constant
    Bit rate : 448 Kbps
    Channel(s) : 6 channels
    Channel positions : Front: L C R, Side: L R, LFE
    Sampling rate : 48.0 KHz
    Frame rate : 31.250 fps (1536 spf)
    Compression mode : Lossy
    Stream size : 305 MiB (3%)
    Title : AVO D.Esarev.cens
    Language : Russian
    Default : No
    Forced : No
    Audio #3
    ID : 4
    Format : DTS
    Format/Info : Digital Theater Systems
    Mode : 16
    Format settings, Endianness : Big
    Codec ID : A_DTS
    Duration : 1h 35mn
    Bit rate mode : Constant
    Bit rate : 1 509 Kbps
    Channel(s) : 6 channels
    Channel positions : Front: L C R, Side: L R, LFE
    Sampling rate : 48.0 KHz
    Frame rate : 93.750 fps (512 spf)
    Bit depth : 24 bits
    Compression mode : Lossy
    Stream size : 1.00 GiB (11%)
    Title : Original
    Language : English
    Default : No
    Forced : No
    Text #1
    ID : 5
    Format : UTF-8
    Codec ID : S_TEXT/UTF8
    Codec ID/Info : UTF-8 Plain Text
    Duration : 1h 27mn
    Bit rate : 80 bps
    Count of elements : 1123
    Stream size : 51.7 KiB (0%)
    Title : Full
    Language : Russian
    Default : No
    Forced : No
    Text #2
    ID : 6
    Format : UTF-8
    Codec ID : S_TEXT/UTF8
    Codec ID/Info : UTF-8 Plain Text
    Duration : 1h 27mn
    Bit rate : 85 bps
    Count of elements : 1211
    Stream size : 54.9 KiB (0%)
    Title : SDH
    Language : Russian
    Default : No
    Forced : No
    Text #3
    ID : 7
    Format : UTF-8
    Codec ID : S_TEXT/UTF8
    Codec ID/Info : UTF-8 Plain Text
    Duration : 1h 33mn
    Bit rate : 56 bps
    Count of elements : 1432
    Stream size : 38.6 KiB (0%)
    Title : Full
    Language : English
    Default : No
    Forced : No
    Text #4
    ID : 8
    Format : UTF-8
    Codec ID : S_TEXT/UTF8
    Codec ID/Info : UTF-8 Plain Text
    Duration : 1h 31mn
    Bit rate : 50 bps
    Count of elements : 1306
    Stream size : 33.6 KiB (0%)
    Title : SDH
    Language : English
    Default : No
    Forced : No
    Menu
    00: 00: 00.000 : en: Chapter 1
    00: 07: 44.213 : en: Chapter 2
    00: 13: 51.247 : en: Chapter 3
    00: 18: 01.163 : en: Chapter 4
    00: 24: 30.051 : en: Chapter 5
    00: 32: 01.961 : en: Chapter 6
    00: 37: 28.162 : en: Chapter 7
    00: 45: 49.788 : en: Chapter 8
    00: 49: 17.162 : en: Chapter 9
    00: 55: 19.524 : en: Chapter 10
    01: 00: 19.866 : en: Chapter 11
    01: 03: 34.894 : en: Chapter 12
    01: 10: 05.200 : en: Chapter 13
    01: 13: 34.701 : en: Chapter 14
    01: 17: 52.209 : en: Chapter 15
    01: 25: 07.560 : en: Chapter 16
    Скриншоты


    Онлайн видео Зелёная комната


    Размер скачиваемого торрента: 9.01 GB (9675943294 Bytes)

    Зелёная комната/Green Room (2015) BDRip 1080p от ExKinoRay | A
    загрузка...
    Рейтинг →
     (голосов: 1, оценка 3/5, голосовать можно 1 раз )

    Другие торренты по теме:

  • Зелёная комната / Green Room (2015) BDRip от ExKinoRay | D


    • Комментарии (0):

      Информация

      Информация

        Посетители, находящиеся в группе Гости, не могут оставлять комментарии в данной новости.

        ↓ Меню



        ↓ Опрос

        А Вы добавили сайт в закладки?
        Да
        Не


        Top 10 за месяц (Фильмы)