.
Авторизация | Регистрация
Хочешь лучшие торренты? Добавь свой email!
Добавить
» » Гвоздь программы (1955) SATRip от New-Team скачать торрент бесплатно




    Гвоздь программы (1955) SATRip от New-Team скачать торрент бесплатно

    Опубликовал: Админ | Дата: 7-07-2016, 13:53 | Просмотров: 107



    Снималось в: СССР
    Создали в: Ленфильм
    Категория жанра: короткометражка, мюзикл, комедия
    Создали в: 1955
    Время просмотра: 00: 28: 14
    Перевод текста: Не требуется
    Субтитры подготовлены: нет
    Оригинальная аудиодорожка: русский
    Главный режиссер: Николай Лебедев

    Актеры

    Глеб Селянин, Муза Крепкогорская, Василий Меркурьев, Вера Романова, Михаил Иванов, Борис Лёскин...
    Полный список актёров
    Описание:
    Председатель колхоза Иван Кузьмич, ссылаясь на срочные работы, не отпускает участников художественной самодеятельности на районный смотр. В деревню приезжает бригада артистов филармонии, но их концерт под угрозой срыва: от поезда отстал танцор и певец - гвоздь программы. Заведующая клубом Дуняша предлагает заменить артиста шофером Сеней Перепелкиным. Частушки и танцы Перепелкина поражают всех присутствующих на концерте - и растроганный Иван Кузьмич отпускает Дуняшу с коллективом на районный смотр.



    Источник: DVB
    Качество фильма видео: SATRip
    Тип видео видео: AVI
    Информация о видео: 704x528 (4: 3), 25 fps, XviD ~ 1637 kbps avg, 0.176 bit/pixel
    Информация о звуке: 48 kHz, Dolby Digital AC3 2.0, 192 kbps
    Раздача от:
    MediaInfo

    Общее
    Полное имя : Gvozd.programmy.1955.SATRip_New-team_by_AVP_Studio.avi
    Формат : AVI
    Формат/Информация : Audio Video Interleave
    Размер файла : 371 Мбайт
    Продолжительность : 28 м.
    Общий поток : 1839 Кбит/сек
    Программа кодирования : VirtualDubMod 1.5.10.3 | www.virtualdub-fr.org || (build 2550/release)
    Библиотека кодирования : VirtualDubMod build 2550/release
    Видео
    Идентификатор : 0
    Формат : MPEG-4 Visual
    Профиль формата : Advanced Simple@L5
    Параметр BVOP формата : 1
    Параметр QPel формата : Нет
    Параметр GMC формата : Без точки перехода
    Параметр матрицы формата : Выборочная
    Идентификатор кодека : XVID
    Идентификатор кодека/Подсказка : XviD
    Продолжительность : 28 м.
    Битрейт : 1637 Кбит/сек
    Ширина : 704 пикселя
    Высота : 528 пикселей
    Соотношение сторон : 4: 3
    Частота кадров : 25, 000 кадров/сек
    Цветовое пространство : YUV
    Субдискретизация насыщенности : 4: 2: 0
    Битовая глубина : 8 бит
    Тип развёртки : Прогрессивная
    Метод сжатия : С потерями
    Бит/(Пиксели*Кадры) : 0.176
    Размер потока : 330 Мбайт (89%)
    Библиотека кодирования : XviD 1.2.1 (UTC 2008-12-04)
    Аудио
    Идентификатор : 1
    Формат : AC-3
    Формат/Информация : Audio Coding 3
    Расширение режима : CM (complete main)
    Параметр Endianness формата : Big
    Идентификатор кодека : 2000
    Продолжительность : 28 м.
    Вид битрейта : Постоянный
    Битрейт : 192 Кбит/сек
    Каналы : 2 канала
    Расположение каналов : Front: L R
    Частота : 48, 0 КГц
    Частота кадров : 31, 250 кадров/сек (1536 spf)
    Метод сжатия : С потерями
    Размер потока : 38, 8 Мбайт (10%)
    Выравнивание : Разделение по промежуткам
    Продолжительность промежутка : 40 мс. (1, 00 видеокадр)
    Время предзагрузки промежутка : 500 мс

    Скриншоты



    Залил: AVPStudio

    Онлайн видео Гвоздь программы (1955) SATRip от New


    Размер скачиваемого торрента: 371.20 MB (389226496 Bytes)

    Гвоздь программы (1955) SATRip от New-Team
    загрузка...
    Рейтинг →
     (голосов: 1, оценка 5/5, голосовать можно 1 раз )

    Другие торренты по теме:

  • Роб Зомби, Стив Найлз, Нэт Джонс - The Nail / Гвоздь (comics) (2004) CBR
  • Третий гвоздь / The Third Nail (2007) DVDRip | P2
  • Третий гвоздь / The Third Nail (2007) DVDRip-AVC | P2


    • Комментарии (0):

      Информация

      Информация

        Посетители, находящиеся в группе Гости, не могут оставлять комментарии в данной новости.

        ↓ Меню



        ↓ Опрос

        А Вы добавили сайт в закладки?
        Да
        Не


        Top 10 за месяц (Фильмы)