.
Авторизация | Регистрация
Хочешь лучшие торренты? Добавь свой email!
Добавить
» » Хардкор / Hardcore Henry (2015) WEB-DLRip-AVC от Scarabey | Line скачать торрент бесплатно




    Хардкор / Hardcore Henry (2015) WEB-DLRip-AVC от Scarabey | Line скачать торрент бесплатно

    Опубликовал: Админ | Дата: 7-07-2016, 05:00 | Просмотров: 70



    Создали в: 2015
    Снималось в: США
    Категория жанра: боевик, фантастика
    Время просмотра: 01: 36: 46
    Перевод текста: Профессиональный (полное дублирование) Чистый звук - Line
    Субтитры подготовлены: есть, английские (в паре мест) - вшитые
    Главный режиссер: Илья Найшуллер/Ilya Nayshuller

    Актеры
    Шарлто Копли, Данила Козловский, Хейли Беннетт, Андрей Дементьев, Сергей Шнуров, Кирилл Серебренников, Александр Паль, Светлана Устинова, Даша Чаруша, Равшана Куркова
    Описание: Молодой человек пробуждается в засекреченной воздушной лаборатории над Москвой, занимающейся разработками в области биоинженерии. У него нет воспоминаний о прошлом, а специалист центра Эстель рассказывает, что он её муж - Генри, погибший, но возвращённый к жизни в качестве высокотехнологичного киборга, способного на невероятные вещи. Всего через несколько минут в лабораторию врывается могущественный психопат с телекинетическими силами Акан, который стреляет в Генри и похищает Эстель. Сразу после пробуждения для растерянного Генри начинается полный хардкор, ведь он один, без памяти и в чужой Москве, где психопат с манией величия и планами по порабощению человечества с помощью своей армии сверхлюдей открыл на него охоту. Генри бросается на поиски супруги, а помочь ему в смертельно опасном приключении вызывается загадочный британец Джимми, имеющий свои планы на убийство Акана. Вдвоём в незнакомой стране против лучших убийц, они развязывают настоящую войну. Целый день бесконечного хардкора начинается, а Генри хочет лишь вызволить из лап злодея жену и раскрыть тайну своей личности.
    Качество фильма видео: WEB-DLRip-AVC
    Тип видео видео: MKV
    Информация о видео: 1024х550, 23.976 fps, AVC ~2500 kbps avg
    Информация о звуке: 48 kHz, MPEG Layer 3, 2 ch, ~256.00 kbps avg
    Релиз подготовил:
    АНОНСЫ МОИХ РАЗДАЧ!


    Скриншоты

    МедиаИнфо

    ХардкорHardcore.Henry.2016_WEB-DLRip_scarabey.org.mkv
    Format : Matroska
    Format version : Version 2
    File size : 1.86 GiB
    Duration : 1h 36mn
    Overall bit rate : 2 757 Kbps
    Encoded date : UTC 2016-07-05 18: 31: 02
    Writing application : mkvmerge v6.1.0 (;Old Devil;) built on Mar 4 2013 09: 10: 42
    Writing library : libebml v1.3.0 + libmatroska v1.4.0
    Video
    ID : 1
    Format : AVC
    Format/Info : Advanced Video Codec
    Format profile : High@L4.1
    Format settings, CABAC : Yes
    Format settings, ReFrames : 10 frames
    Codec ID : V_MPEG4/ISO/AVC
    Duration : 1h 36mn
    Bit rate : 2 500 Kbps
    Width : 1 024 pixels
    Height : 550 pixels
    Display aspect ratio : 1.85: 1
    Original display aspect ratio : 1.85: 1
    Frame rate mode : Constant
    Frame rate : 23.976 fps
    Color space : YUV
    Chroma subsampling : 4: 2: 0
    Bit depth : 8 bits
    Scan type : Progressive
    Bits/(Pixel*Frame) : 0.185
    Stream size : 1.65 GiB (89%)
    Writing library : x264 core 148 r2597 e86f3a1
    Encoding settings : cabac=1/ref=10/deblock=1: -3: -2/analyse=0x3: 0x113/me=umh/subme=10/psy=1/psy_rd=1.00: 0.00/mixed_ref=1/me_range=32/chroma_me=1/trellis=2/8x8dct=1/cqm=0/deadzone=21, 11/fast_pskip=1/chroma_qp_offset=-2/threads=12/lookahead_threads=2/sliced_threads=0/nr=0/decimate=0/interlaced=0/bluray_compat=0/constrained_intra=0/bframes=8/b_pyramid=2/b_adapt=2/b_bias=0/direct=3/weightb=1/open_gop=0/weightp=2/keyint=240/keyint_min=24/scenecut=40/intra_refresh=0/rc_lookahead=40/rc=2pass/mbtree=1/bitrate=2500/ratetol=1.0/qcomp=0.60/qpmin=0/qpmax=69/qpstep=4/cplxblur=20.0/qblur=0.5/ip_ratio=1.40/aq=1: 1.00
    Default : Yes
    Forced : No
    Audio
    ID : 2
    Format : MPEG Audio
    Format version : Version 1
    Format profile : Layer 3
    Mode : Joint stereo
    Codec ID : A_MPEG/L3
    Codec ID/Hint : MP3
    Duration : 1h 36mn
    Bit rate mode : Constant
    Bit rate : 256 Kbps
    Channel(s) : 2 channels
    Sampling rate : 48.0 KHz
    Compression mode : Lossy
    Stream size : 177 MiB (9%)
    Default : Yes
    Forced : No


    Онлайн видео Хардкор


    Размер скачиваемого торрента: 1.86 GB (2000954119 Bytes)

    Хардкор/Hardcore Henry (2015) WEB-DLRip-AVC от Scarabey | Line
    загрузка...
    Рейтинг →
     (голосов: 1, оценка 5/5, голосовать можно 1 раз )

    Другие торренты по теме:

  • Хардкор / Hardcore Henry (2015) CAMRip | A
  • Хардкор / Hardcore Henry (2015)
  • Хардкор / Hardcore Henry / 2015 / ДБ (Line) / WEB-DLRip
  • Хардкор / Hardcore Henry / 2015 / ДБ (Line) / WEB-DL (1080p)
  • Хардкор / Hardcore Henry (2015) WEB-DLRip-AVC от ExKinoRay | D | Line
  • Хардкор / Hardcore Henry (2015) WEB-DLRip от Scarabey | Line
  • Хардкор / Hardcore Henry (2015) WEB-DLRip | iTunes
  • Хардкор / Hardcore Henry (2015) WEB-DL 1080p от ExKinoRay | iTunes


    • Комментарии (0):

      Информация

      Информация

        Посетители, находящиеся в группе Гости, не могут оставлять комментарии в данной новости.

        ↓ Меню



        ↓ Опрос

        А Вы добавили сайт в закладки?
        Да
        Не


        Top 10 за месяц (Фильмы)