.
Авторизация | Регистрация
Хочешь лучшие торренты? Добавь свой email!
Добавить
» » В один прекрасный день (1955) TVRip от New-Team скачать торрент бесплатно




    В один прекрасный день (1955) TVRip от New-Team скачать торрент бесплатно

    Опубликовал: Админ | Дата: 6-07-2016, 16:12 | Просмотров: 79



    Снималось в: СССР
    Создали в: Киевская киностудия
    Категория жанра: мюзикл, комедия
    Создали в: 1955
    Время просмотра: 01: 26: 41
    Перевод текста: Не требуется
    Субтитры подготовлены: нет
    Оригинальная аудиодорожка: русский
    Главный режиссер: Михаил Слуцкий

    Актеры

    Екатерина Савинова, Елена Лицканович, Дмитрий Дубов, Алексей Бунин, Евгений Шутов, Нонна Копержинская, Михаил Белоусов, Мария Миронова, Михаил Покотило, Иван Пельтцер, Полина Нятко, Виктор Халатов, Николай Панасьев, Михаил Пуговкин, Евгений Зиновьев...
    Полный список актёров
    Описание:
    В рядовой украинский колхоз приезжает новый музыкальный работник, окончившая консерваторию энергичная молодая девушка. Она повела борьбу с председателем колхоза и бухгалтером, которые считали, что музыкальная самодеятельность для колхозников - нечто совсем необязательное...



    Качество фильма видео: TVRip
    Тип видео видео: AVI
    Информация о видео: 640x480 (4: 3), 25 fps, XviD ~ 1062 kbps avg, 0.138 bit/pixel
    Информация о звуке: 48 kHz, MP3 2.0, 128 kbps
    Раздача от:
    MediaInfo

    Общее
    Полное имя : V.odin.prekrasniyden.1955.TVRip-745_New-team_by_AVP_Studio.avi
    Формат : AVI
    Формат/Информация : Audio Video Interleave
    Размер файла : 744 Мбайт
    Продолжительность : 1 ч. 26 м.
    Общий поток : 1200 Кбит/сек
    Программа кодирования : VirtualDubMod 1.5.10.3 | www.virtualdub-fr.org || (build 2550/release)
    Библиотека кодирования : VirtualDubMod build 2550/release
    Видео
    Идентификатор : 0
    Формат : MPEG-4 Visual
    Профиль формата : Advanced Simple@L5
    Параметр BVOP формата : 1
    Параметр QPel формата : Нет
    Параметр GMC формата : Без точки перехода
    Параметр матрицы формата : Выборочная
    Идентификатор кодека : XVID
    Идентификатор кодека/Подсказка : XviD
    Продолжительность : 1 ч. 26 м.
    Битрейт : 1062 Кбит/сек
    Ширина : 640 пикселей
    Высота : 480 пикселей
    Соотношение сторон : 4: 3
    Частота кадров : 25, 000 кадров/сек
    Цветовое пространство : YUV
    Субдискретизация насыщенности : 4: 2: 0
    Битовая глубина : 8 бит
    Тип развёртки : Прогрессивная
    Метод сжатия : С потерями
    Бит/(Пиксели*Кадры) : 0.138
    Размер потока : 658 Мбайт (89%)
    Библиотека кодирования : XviD 1.2.1 (UTC 2008-12-04)
    Аудио
    Идентификатор : 1
    Формат : MPEG Audio
    Версия формата : Version 1
    Профиль формата : Layer 3
    Идентификатор кодека : 55
    Идентификатор кодека/Подсказка : MP3
    Продолжительность : 1 ч. 26 м.
    Вид битрейта : Постоянный
    Битрейт : 128 Кбит/сек
    Каналы : 2 канала
    Частота : 48, 0 КГц
    Метод сжатия : С потерями
    Размер потока : 79, 3 Мбайт (11%)
    Выравнивание : Соединение по промежуткам
    Продолжительность промежутка : 40 мс. (1, 00 видеокадр)
    Время предзагрузки промежутка : 504 мс.
    Библиотека кодирования : LAME3.99r
    Залил: AVPStudio

    Онлайн видео В один прекрасный день (1955) TVRip от New


    Размер скачиваемого торрента: 743.79 MB (779917312 Bytes)


    В один прекрасный день (1955) TVRip от New-Team
    загрузка...
    Рейтинг →
     (голосов: 1, оценка 5/5, голосовать можно 1 раз )

    Другие торренты по теме:

  • Один прекрасный день / A Perfect Day (2006) DVDRip | P
  • Один прекрасный день / One Fine Day (1996) BDRip от HQCLUB
  • В один прекрасный день / 1955 / РУ / TVRip


    • Комментарии (0):

      Информация

      Информация

        Посетители, находящиеся в группе Гости, не могут оставлять комментарии в данной новости.

        ↓ Меню



        ↓ Опрос

        А Вы добавили сайт в закладки?
        Да
        Не


        Top 10 за месяц (Фильмы)