.
Авторизация | Регистрация
Хочешь лучшие торренты? Добавь свой email!
Добавить
» » Бэтмен против Супермена: На заре справедливости / Batman v Superman: Dawn of Justice (2016) BDRip 720p от ExKinoRay | Расширенная версия | D скачать торрент бесплатно




    Бэтмен против Супермена: На заре справедливости / Batman v Superman: Dawn of Justice (2016) BDRip 720p от ExKinoRay | Расширенная версия | D скачать торрент бесплатно

    Опубликовал: Админ | Дата: 6-07-2016, 05:00 | Просмотров: 53



    Детально о кино
    Русское название: Бэтмен против Супермена: На заре справедливости
    Русское название в мировом прокате: Batman v Superman: Dawn of Justice
    Создали в: 2016
    Категория жанра: Фантастика, фэнтези, боевик, приключения
    Главный режиссер: Зак Снайдер

    Актеры
    Генри Кавилл, Бен Аффлек, Галь Гадот, Эми Адамс, Джесси Айзенберг, Джереми Айронс, Дайан Лэйн, Лоренс Фишбёрн, Холли Хантер, Скут МакНэйри, Каллэн Мулвей, Тао Окамото, Брэндон Спинк, Лорен Коэн, Алан Д. Первин, Марк Эдвард Тейлор, Хью Магвайр, Майкл Шеннон, Ханна Дворкин, Тиффани Л. Эддисон

    Сюжет фильма

    Битва между Кал-Элом и генералом Зодом наносит множество разрушений Метрополису и соседнему Готэм Сити. Башня Уэйн-тауэр - уничтожена вместе с сотнями невинных людей. Это становится началом конфликта между Последним Сыном Криптона и Темным Рыцарем Готэма, богом и человеком. Тем временем, сумасшедший гений Лекс Лютор готовит оружие Судного дня, способное уничтожить не только богоподобного Супермена, но и все человечество.

    Снималось в: США
    Киностудия: Atlas Entertainment, DC Comics, DC Entertainment, Warner Bros. Pictures
    Время просмотра: 03: 02: 31
    Перевод текста: Дублированный | iTunes
    Файл
    Кодек для видео: x264
    Качество фильма: BDRip 720p
    Информация о видео: 1280x534, 6835 Kbit/s, 23.976 fps
    Информация о звуке:
    Информация о звуке #01: 48 kHz, AC3, 5.1, 384 Kbps | Дублированный, iTunes |
    Информация о звуке #02: 48 kHz, AC3, 5.1, 640 kbps | Оригинал |
    Субтитры: Русские (forced, full), английские (srt, SDH)
    Релиз подготовил: Автор релиза:

    MI
    General
    Unique ID : 194977140805589945285903847959510744817 (0x92AF3B3CB15DD19C93CED000498D7EF1)
    Complete name : F: VideoBatman.v.Superman.Dawn.of.Justice.2016.Extended.Ultimate.Edition.BDRip.720p.ExKinoRay.mkv
    Format : Matroska
    Format version : Version 4/Version 2
    File size : 10.1 GiB
    Duration : 3h 2mn
    Overall bit rate : 7 882 Kbps
    Movie name : Batman.v.Superman.Dawn.of.Justice.2016.Extended.Ultimate.Edition.BDRip.720p.ExKinoRay
    Encoded date : UTC 2016-07-05 15: 18: 55
    Writing application : mkvmerge v8.3.0 (;Over the Horizon;) 64bit
    Writing library : libebml v1.3.1 + libmatroska v1.4.2
    Video
    ID : 1
    Format : AVC
    Format/Info : Advanced Video Codec
    Format profile : High@L4.1
    Format settings, CABAC : Yes
    Format settings, ReFrames : 9 frames
    Codec ID : V_MPEG4/ISO/AVC
    Duration : 3h 2mn
    Bit rate : 6 855 Kbps
    Width : 1 280 pixels
    Height : 534 pixels
    Display aspect ratio : 2.40: 1
    Frame rate mode : Constant
    Frame rate : 23.976 (24000/1001) fps
    Color space : YUV
    Chroma subsampling : 4: 2: 0
    Bit depth : 8 bits
    Scan type : Progressive
    Bits/(Pixel*Frame) : 0.418
    Stream size : 8.74 GiB (87%)
    Writing library : x264 core 142 r2431+42 c69a006 tMod 8-bit@4: 2: 0 X86_64
    Encoding settings : cabac=1/ref=9/deblock=1: -3: -3/analyse=0x3: 0x113/me=umh/subme=11/psy=1/fade_compensate=0.00/psy_rd=1.00: 0.05/mixed_ref=1/me_range=32/chroma_me=1/trellis=2/8x8dct=1/cqm=0/deadzone=21, 11/fast_pskip=0/chroma_qp_offset=-2/threads=12/lookahead_threads=2/sliced_threads=0/nr=0/decimate=1/interlaced=0/bluray_compat=0/constrained_intra=0/fgo=0/bframes=8/b_pyramid=2/b_adapt=2/b_bias=0/direct=3/weightb=1/open_gop=0/weightp=2/keyint=250/keyint_min=23/scenecut=40/intra_refresh=0/rc_lookahead=40/rc=crf/mbtree=0/crf=18.0000/qcomp=0.60/qpmin=0: 0: 0/qpmax=69: 69: 69/qpstep=4/vbv_maxrate=30000/vbv_bufsize=30000/crf_max=0.0/nal_hrd=none/filler=0/ip_ratio=1.40/pb_ratio=1.30/aq=3: 1.00/aq-sensitivity=10.00/aq-factor=1.00: 1.00: 1.00/aq2=0/aq3=0
    Language : English
    Default : Yes
    Forced : No
    Color range : Limited
    Matrix coefficients : BT.709
    Audio #1
    ID : 2
    Format : AC-3
    Format/Info : Audio Coding 3
    Mode extension : CM (complete main)
    Format settings, Endianness : Big
    Codec ID : A_AC3
    Duration : 3h 2mn
    Bit rate mode : Constant
    Bit rate : 384 Kbps
    Channel(s) : 6 channels
    Channel positions : Front: L C R, Side: L R, LFE
    Sampling rate : 48.0 KHz
    Frame rate : 31.250 fps (1536 spf)
    Compression mode : Lossy
    Delay relative to video : 1s 0ms
    Stream size : 501 MiB (5%)
    Language : Russian
    Default : Yes
    Forced : No
    Audio #2
    ID : 3
    Format : AC-3
    Format/Info : Audio Coding 3
    Mode extension : CM (complete main)
    Format settings, Endianness : Big
    Codec ID : A_AC3
    Duration : 3h 2mn
    Bit rate mode : Constant
    Bit rate : 640 Kbps
    Channel(s) : 6 channels
    Channel positions : Front: L C R, Side: L R, LFE
    Sampling rate : 48.0 KHz
    Frame rate : 31.250 fps (1536 spf)
    Compression mode : Lossy
    Stream size : 836 MiB (8%)
    Language : English
    Default : No
    Forced : No
    Text #1
    ID : 4
    Format : UTF-8
    Codec ID : S_TEXT/UTF8
    Codec ID/Info : UTF-8 Plain Text
    Duration : 2h 53mn
    Bit rate : 19 bps
    Count of elements : 431
    Stream size : 24.5 KiB (0%)
    Title : Forced
    Language : Russian
    Default : Yes
    Forced : No
    Text #2
    ID : 5
    Format : UTF-8
    Codec ID : S_TEXT/UTF8
    Codec ID/Info : UTF-8 Plain Text
    Duration : 2h 53mn
    Bit rate : 66 bps
    Count of elements : 1588
    Stream size : 84.8 KiB (0%)
    Title : NotaBenoid
    Language : Russian
    Default : No
    Forced : No
    Text #3
    ID : 6
    Format : UTF-8
    Codec ID : S_TEXT/UTF8
    Codec ID/Info : UTF-8 Plain Text
    Duration : 3h 2mn
    Bit rate : 43 bps
    Count of elements : 1914
    Stream size : 58.7 KiB (0%)
    Language : English
    Default : No
    Forced : No
    Text #4
    ID : 7
    Format : UTF-8
    Codec ID : S_TEXT/UTF8
    Codec ID/Info : UTF-8 Plain Text
    Duration : 2h 53mn
    Bit rate : 46 bps
    Count of elements : 1913
    Stream size : 58.5 KiB (0%)
    Title : SDH
    Language : English
    Default : No
    Forced : No
    Menu
    00: 00: 00.000 : en: 00: 00: 00.000
    00: 10: 10.652 : en: 00: 10: 10.652
    00: 27: 00.661 : en: 00: 27: 00.661
    00: 37: 49.225 : en: 00: 37: 49.225
    00: 46: 54.520 : en: 00: 46: 54.520
    01: 02: 04.971 : en: 01: 02: 04.971
    01: 14: 10.613 : en: 01: 14: 10.613
    01: 28: 07.115 : en: 01: 28: 07.115
    01: 41: 46.642 : en: 01: 41: 46.642
    01: 53: 52.617 : en: 01: 53: 52.617
    02: 02: 58.079 : en: 02: 02: 58.079
    02: 15: 04.054 : en: 02: 15: 04.054
    02: 27: 55.075 : en: 02: 27: 55.075
    02: 36: 51.444 : en: 02: 36: 51.444
    02: 48: 27.514 : en: 02: 48: 27.514
    02: 54: 43.765 : en: 02: 54: 43.765
    Примечание
    Расширенные места без русского озвучивания. Переведены русскими форсированными субтитрами. Включены по умолчанию.
    Скриншоты


    Онлайн видео Бэтмен против Супермена: На заре справедливости


    Размер скачиваемого торрента: 10.05 GB (10791703698 Bytes)

    Бэтмен против Супермена: На заре справедливости/Batman v Superman: Dawn of Justice (2016) BDRip 720p от ExKinoRay | Расширенная версия | D
    загрузка...
    Рейтинг →
     (голосов: 1, оценка 4/5, голосовать можно 1 раз )

    Другие торренты по теме:

  • Бэтмен против Дракулы / The Batman vs Dracula: The Animated Movie (2005) WEB-DLRip от Deadmauvlad | D | iTunes
  • Бэтмен против Робина / Batman vs. Robin (2015) HDRip | L
  • Бэтмен против Робина / Batman vs. Robin (2015) WEB-DL 1080p | L1
  • Бэтмен против Робина / Batman vs. Robin (2015) HDRip | L1
  • Бэтмен против Робина / Batman vs. Robin (2015) WEB-DLRip | Sub
  • Бэтмен против Супермена: На заре справедливости / Batman v Superman: Dawn of Justice (2016) DCPrip | 2K, Hi10P | Тизер-трейлер
  • Бэтмен против Робина / Batman vs. Robin (2015) BDRemux 1080p
  • Бэтмен против Супермена: На заре справедливости / Batman v Superman: Dawn of Justice (2016) WEBRip 1080p | Трейлер#3


    • Комментарии (0):

      Информация

      Информация

        Посетители, находящиеся в группе Гости, не могут оставлять комментарии в данной новости.

        ↓ Меню



        ↓ Опрос

        А Вы добавили сайт в закладки?
        Да
        Не


        Top 10 за месяц (Фильмы)