.
Авторизация | Регистрация
Хочешь лучшие торренты? Добавь свой email!
Добавить
» » Максимальное ускорение / Maximum Overdrive (1986) BDRip 720p | P2, A скачать торрент бесплатно




    Максимальное ускорение / Maximum Overdrive (1986) BDRip 720p | P2, A скачать торрент бесплатно

    Опубликовал: Админ | Дата: 6-07-2016, 05:00 | Просмотров: 91



    Детально о кино
    Русское название: Максимальное ускорение
    Русское название в мировом прокате: Maximum Overdrive
    Создали в: 1986
    Снималось в: США
    Категория жанра: ужасы, фантастика, боевик, триллер, комедия
    Перевод текста: Профессиональный (двухголосый) DVD R5; Авторский (одноголосый) Ю.Сербин
    Субтитры: русские (Full), английские (Full), английские (SDH)
    Время просмотра: 01: 38: 06
    Главный режиссер: Стивен Кинг

    Актеры
    Эмилио Эстевес(Bill Robinson) , Пэт Хингл(Hendershot) , Лора Хэррингтон(Brett) , Ярдли Смит(Connie) , Джон Шорт(Curt) , Эллен МакЭлдафф(Wanda June) , Дж. К. Куин(Duncan) , Кристофер Мёрни(Camp Loman) , Холтер Грэм(Deke) , Фрэнки Фэйзон(Handy) , Пэт Миллер(Joe) , Джек Кэнон(Max)


    Описание фильма

    Когда комета Ри-М проходит через орбиту Земли и задевает ее своим хвостом, происходит глобальная катастрофа. Перестают качать насосы, выходят из строя компьютеры, электрические ножи режут домохозяек, а газонокосилки косят людей как траву. Внезапно ожившие машины из лучших друзей человека превращаются в его злейших врагов, жаждущих человеческой крови. Особенно безжалостно ведут себя огромные грузовики, давящие всех на своем пути.
    Горстка людей во главе с Билли Робинсоном, укрывшись от стаи взбесившихся грузовиков в здании бензозаправочной станции, готовится дать последний бой взбунтовавшимся машинам...
    Рейтинг:

    MPAA: R- Лицам до 17 лет обязательно присутствие взрослого
    Качество фильма: BDRip 720pSbR
    Тип видео: MKV
    Информация о видео: AVC, 1280x548 (2.35: 1), 7081 kbps, 23, 976 fps, 0, 421 bpp
    Информация о звуке №1: русский/AC3/5.1/48 kHz/448 kbps/16 bit |DVO (DVD R5)|
    Информация о звуке №2: русский/AC3/2.0/48 kHz/192 kbps/16 bit |AVO Ю.Сербин|
    Информация о звуке №3: английский/AC3/5.1/48 kHz/448 kbps/16 bit |Eng (DVD R1)|
    Информация о звуке №4: английский/AC3/2.0/48 kHz/192 kbps/16 bit |Eng (BD ITA)|
    Навигация по главам: есть
    Сэмпл

    ОтчетМедиаИнфо

    General
    Unique ID : 173550088930693352637871642584281122612 (0x8290880414B35AECB586B9C334020734)
    Complete name : E: Maximum.Overdrive.1986.BDRip.720p.mkv
    Format : Matroska
    Format version : Version 4/Version 2
    File size : 5.85 GiB
    Duration : 1h 38mn
    Overall bit rate : 8 531 Kbps
    Movie name : Maximum Overdrive 1986 BDRip 720p
    Encoded date : UTC 2016-07-05 08: 56: 44
    Writing application : mkvmerge v9.2.0 (;Photograph;) 64bit
    Writing library : libebml v1.3.3 + libmatroska v1.4.4
    DURATION : 01: 38: 06.432000000
    NUMBER_OF_FRAMES : 183951
    NUMBER_OF_BYTES : 141274368
    _STATISTICS_WRITING_APP : mkvmerge v9.2.0 (;Photograph;) 64bit
    _STATISTICS_WRITING_DATE_UTC : 2016-07-05 08: 56: 44
    _STATISTICS_TAGS : BPS DURATION NUMBER_OF_FRAMES NUMBER_OF_BYTES
    Attachment : Yes
    Video
    ID : 1
    Format : AVC
    Format/Info : Advanced Video Codec
    Format profile : High@L4.1
    Format settings, CABAC : Yes
    Format settings, ReFrames : 11 frames
    Codec ID : V_MPEG4/ISO/AVC
    Duration : 1h 38mn
    Bit rate : 7 081 Kbps
    Width : 1 280 pixels
    Height : 548 pixels
    Display aspect ratio : 2.35: 1
    Frame rate : 23.976 fps
    Color space : YUV
    Chroma subsampling : 4: 2: 0
    Bit depth : 8 bits
    Scan type : Progressive
    Bits/(Pixel*Frame) : 0.421
    Stream size : 4.85 GiB (83%)
    Writing library : x264 core 146 r2538kMod 121396c
    Encoding settings : cabac=1/ref=11/deblock=1: -3: -3/analyse=0x3: 0x133/me=esa/subme=10/psy=1/fade_compensate=0.00/psy_rd=1.00: 0.05/mixed_ref=1/me_range=24/chroma_me=1/trellis=2/8x8dct=1/cqm=0/deadzone=21, 11/fast_pskip=0/chroma_qp_offset=-3/threads=6/lookahead_threads=1/sliced_threads=0/nr=0/decimate=1/interlaced=0/bluray_compat=0/constrained_intra=0/fgo=0/bframes=12/b_pyramid=2/b_adapt=2/b_bias=0/direct=3/weightb=1/open_gop=0/weightp=2/keyint=250/keyint_min=23/scenecut=40/intra_refresh=0/rc_lookahead=60/rc=crf/mbtree=0/crf=16.5000/qcomp=0.65/qpmin=0/qpmax=69/qpstep=4/vbv_maxrate=62500/vbv_bufsize=78125/crf_max=0.0/nal_hrd=none/filler=0/ip_ratio=1.30/pb_ratio=1.20/aq=1: 0.80
    Language : English
    Default : Yes
    Forced : No
    DURATION : 01: 38: 06.464000000
    NUMBER_OF_FRAMES : 141134
    NUMBER_OF_BYTES : 5333097824
    _STATISTICS_WRITING_APP : mkvmerge v9.2.0 (;Photograph;) 64bit
    _STATISTICS_WRITING_DATE_UTC : 2016-07-05 08: 56: 44
    _STATISTICS_TAGS : BPS DURATION NUMBER_OF_FRAMES NUMBER_OF_BYTES
    Color primaries : BT.709-5, BT.1361, IEC 61966-2-4, SMPTE RP177
    Transfer characteristics : BT.709-5, BT.1361
    Matrix coefficients : BT.709-5, BT.1361, IEC 61966-2-4 709, SMPTE RP177
    Audio #1
    ID : 2
    Format : AC-3
    Format/Info : Audio Coding 3
    Mode extension : CM (complete main)
    Codec ID : A_AC3
    Duration : 1h 38mn
    Bit rate mode : Constant
    Bit rate : 448 Kbps
    Channel(s) : 6 channels
    Channel positions : Front: L C R, Side: L R, LFE
    Sampling rate : 48.0 KHz
    Bit depth : 16 bits
    Compression mode : Lossy
    Stream size : 314 MiB (5%)
    Title : DVO (DVD R5)
    Language : Russian
    Default : Yes
    Forced : No
    Audio #2
    ID : 3
    Format : AC-3
    Format/Info : Audio Coding 3
    Mode extension : CM (complete main)
    Codec ID : A_AC3
    Duration : 1h 38mn
    Bit rate mode : Constant
    Bit rate : 192 Kbps
    Channel(s) : 2 channels
    Channel positions : Front: L R
    Sampling rate : 48.0 KHz
    Bit depth : 16 bits
    Compression mode : Lossy
    Stream size : 135 MiB (2%)
    Title : AVO Юрий Сербин
    Language : Russian
    Default : No
    Forced : No
    Audio #3
    ID : 4
    Format : AC-3
    Format/Info : Audio Coding 3
    Mode extension : CM (complete main)
    Codec ID : A_AC3
    Duration : 1h 38mn
    Bit rate mode : Constant
    Bit rate : 448 Kbps
    Channel(s) : 6 channels
    Channel positions : Front: L C R, Side: L R, LFE
    Sampling rate : 48.0 KHz
    Bit depth : 16 bits
    Compression mode : Lossy
    Stream size : 314 MiB (5%)
    Title : DVD R1
    Language : English
    Default : No
    Forced : No
    Audio #4
    ID : 5
    Format : AC-3
    Format/Info : Audio Coding 3
    Mode extension : CM (complete main)
    Codec ID : A_AC3
    Duration : 1h 38mn
    Bit rate mode : Constant
    Bit rate : 192 Kbps
    Channel(s) : 2 channels
    Channel positions : Front: L R
    Sampling rate : 48.0 KHz
    Bit depth : 16 bits
    Compression mode : Lossy
    Stream size : 135 MiB (2%)
    Title : BD ITA
    Language : English
    Default : No
    Forced : No
    Text #1
    ID : 6
    Format : UTF-8
    Codec ID : S_TEXT/UTF8
    Codec ID/Info : UTF-8 Plain Text
    Title : Full
    Language : Russian
    Default : No
    Forced : No
    Text #2
    ID : 7
    Format : UTF-8
    Codec ID : S_TEXT/UTF8
    Codec ID/Info : UTF-8 Plain Text
    Title : Full
    Language : English
    Default : No
    Forced : No
    Text #3
    ID : 8
    Format : UTF-8
    Codec ID : S_TEXT/UTF8
    Codec ID/Info : UTF-8 Plain Text
    Title : SDH
    Language : English
    Default : No
    Forced : No
    Menu #1
    00: 00: 00.000 : en: 1. Main Titles/A Situation Here!
    00: 07: 05.300 : en: 2. That;s Some Rig
    00: 11: 13.982 : en: 3. Short Circuit
    00: 15: 54.228 : en: 4. A Close Call
    00: 19: 33.580 : en: 5. Is He Dead?
    00: 24: 52.299 : en: 6. Mechanical Revelt
    00: 29: 28.541 : en: 7. Duncan, Look Out!
    00: 34: 45.291 : en: 8. Surrounded
    00: 41: 37.269 : en: 9. Bombs Away!
    00: 45: 36.141 : en: 10. I;m Warning You!
    00: 51: 18.850 : en: 11. Lights Out
    00: 58: 28.647 : en: 12. Dead On Arrival?
    01: 05: 09.013 : en: 13. A Lesson In Manners
    01: 08: 30.148 : en: 14. You Want A War?
    01: 14: 23.100 : en: 15. Morse Code
    01: 16: 36.634 : en: 16. Risky Business
    01: 21: 05.202 : en: 17. The Coffee Break Is Over
    01: 25: 30.634 : en: 18. When I Say Run, You Run
    01: 30: 46.416 : en: 19. A Perfect Shot
    01: 35: 24.393 : en: 20. End Credits
    Menu #2
    00: 00: 00.000 : it: 1. La cometa Rhe-M
    00: 12: 49.518 : it: 2. Le macchine impazziscono
    00: 23: 16.269 : it: 3. Viaggio di nozze
    00: 36: 55.379 : it: 4. Sotto sequestro
    00: 47: 30.347 : it: 5. L;arsenale
    00: 58: 50.652 : it: 6. Piano di recupero
    01: 10: 47.368 : it: 7. Riforniteci o morirete
    01: 22: 35.450 : it: 8. Piano di evasione
    Скриншоты


    Онлайн видео Максимальное ускорение


    Размер скачиваемого торрента: 5.85 GB (6277250689 Bytes)

    Максимальное ускорение/Maximum Overdrive (1986) BDRip 720p | P2, A
    загрузка...
    Рейтинг →
     (голосов: 1, оценка 5/5, голосовать можно 1 раз )

    Другие торренты по теме:

  • Максимальное Ускорение / Maximum Overdrive (1986) DVDRip от New-Team | P скачать через торрент бесплатно
  • Максимальное Ускорение / Maximum Overdrive (1986) DVDRip от New-Team | P скачать через торрент бесплатно
  • Максимальное Ускорение / Maximum Overdrive (1986) DVDRip-AVC от New-Team | P скачать через торрент бесплатно
  • Максимальное ускорение / Maximum Overdrive (1986) BDRip от HQCLUB | P2, A


    • Комментарии (0):

      Информация

      Информация

        Посетители, находящиеся в группе Гости, не могут оставлять комментарии в данной новости.

        ↓ Меню



        ↓ Опрос

        А Вы добавили сайт в закладки?
        Да
        Не


        Top 10 за месяц (Фильмы)