.
Авторизация | Регистрация
Хочешь лучшие торренты? Добавь свой email!
Добавить
» » Земля Чато / Chatos Land (1972) DVD9 | P, P2 скачать торрент бесплатно




    Земля Чато / Chatos Land (1972) DVD9 | P, P2 скачать торрент бесплатно

    Опубликовал: Админ | Дата: 6-07-2016, 05:00 | Просмотров: 59



    Детально о кино
    Русское название: Земля Чато
    Русское название в мировом прокате: Chato;s Land
    Создали в: 1972
    Категория жанра: Вестерн
    Главный режиссер: Майкл Уиннер

    Актеры
    Чарльз Бронсон, Джек Пэланс, Джеймс Уитмор, Саймон Оукленд, Ральф Уэйт, Ричард Джордан, Виктор Френч, Sonia Rangan, Уильям Уотсон, Родди МакМиллан

    Сюжет фильма
    Индеец-полукровка Пардон Чато в целях самообороны убивает шерифа небольшого городка и пускается в бега. Его преследует целый отряд, возглавляемый бывшим конфедератом, капитаном Куинси Уитмором. Но отыскать индейца в прериях - задача просто невыполнимая. Охотники берут в плен жену Чато и насилуют её, а также убивают индейца, являющегося членом его семьи. После такого поворота событий Чато превращается в яростного и беспощадного мстителя…
    Время просмотра: 01: 40: 23
    Перевод текста: Профессиональный многоголосый, профессиональный двухголосый
    Файл
    Кодек для видео: MPEG-2
    Качество фильма: DVD-9
    Информация о видео: MPEG2, NTSC 16: 9 (720x480@853x480) VBR, 23, 976 кадров/сек
    Информация о звуке: Русский, Английский DD 2.0 (192 Kbps)
    Меню
    DVDInfo

    Title: Локальный диск
    Size: 5.34 Gb ( 5 602 614 KBytes ) - DVD-9
    Enabled regions: 1, 2, 3, 4, 5, 6, 7, 8
    VTS_01 :
    Play Length: 01: 40: 23
    Video: NTSC 16: 9 (720x480) VBR, Auto PanScan
    Audio:
    Russian (Dolby AC3, 2 ch)
    Russian (Dolby AC3, 2 ch)
    English (Dolby AC3, 2 ch)
    Menu Video:
    NTSC 4: 3 (704x480) VBR
    Menu English Language Unit :
    Root Menu
    MediaInfo




    Общее
    Полное имя : D: 1АААЗЕМЛЯ ЧАТОVIDEO_TSVTS_01_1.VOB
    Формат : MPEG-PS
    Размер файла : 1000 Мбайт
    Продолжительность : 17 м.
    Режим общего битрейта : Переменный
    Общий поток : 7990 Кбит/сек
    Видео
    Идентификатор : 224 (0xE0)
    Формат : MPEG Video
    Версия формата : Version 2
    Профиль формата : Main@Main
    Параметр BVOP формата : Да
    Параметр матрицы формата : По умолчанию
    Параметр GOP формата : M=3, N=12
    Продолжительность : 17 м.
    Вид битрейта : Переменный
    Битрейт : 7255 Кбит/сек
    Максимальный битрейт : 8632 Кбит/сек
    Ширина : 720 пикселей
    Высота : 480 пикселей
    Соотношение сторон : 16: 9
    Частота кадров : 23, 976 кадра/сек
    Стандарт вещания : NTSC
    Цветовое пространство : YUV
    Субдискретизация насыщенности : 4: 2: 0
    Битовая глубина : 8 бит
    Тип развёртки : Прогрессивная
    Порядок развёртки : 2: 3 Pulldown
    Метод сжатия : С потерями
    Бит/(Пиксели*Кадры) : 0.876
    TimeCode_FirstFrame : 00: 00: 00;00
    TimeCode_Source : Group of pictures t_head
    Размер потока : 908 Мбайт (91%)
    Аудио #1
    Идентификатор : 189 (0xBD)-128 (0x80)
    Формат : AC-3
    Формат/Информация : Audio Coding 3
    Расширение режима : CM (complete main)
    Параметр Endianness формата : Big
    Режим смешивания : DVD-Video
    Продолжительность : 17 м.
    Вид битрейта : Постоянный
    Битрейт : 192 Кбит/сек
    Каналы : 2 канала
    Расположение каналов : Front: L R
    Частота : 48, 0 КГц
    Битовая глубина : 16 бит
    Метод сжатия : С потерями
    Размер потока : 24, 0 Мбайт (2%)
    Аудио #2
    Идентификатор : 189 (0xBD)-129 (0x81)
    Формат : AC-3
    Формат/Информация : Audio Coding 3
    Расширение режима : CM (complete main)
    Параметр Endianness формата : Big
    Режим смешивания : DVD-Video
    Продолжительность : 17 м.
    Вид битрейта : Постоянный
    Битрейт : 192 Кбит/сек
    Каналы : 2 канала
    Расположение каналов : Front: L R
    Частота : 48, 0 КГц
    Битовая глубина : 16 бит
    Метод сжатия : С потерями
    Размер потока : 24, 0 Мбайт (2%)
    Аудио #3
    Идентификатор : 189 (0xBD)-130 (0x82)
    Формат : AC-3
    Формат/Информация : Audio Coding 3
    Расширение режима : CM (complete main)
    Параметр Endianness формата : Big
    Режим смешивания : DVD-Video
    Продолжительность : 17 м.
    Вид битрейта : Постоянный
    Битрейт : 192 Кбит/сек
    Каналы : 2 канала
    Расположение каналов : Front: L R
    Частота : 48, 0 КГц
    Битовая глубина : 16 бит
    Метод сжатия : С потерями
    Размер потока : 24, 0 Мбайт (2%)
    Меню
    Скриншоты



    Релиз: 089233
    Залил: YArl

    Онлайн видео Земля Чато


    Размер скачиваемого торрента: 5.34 GB (5737076736 Bytes)

    Земля Чато/Chatos Land (1972) DVD9 | P, P2
    загрузка...
    Рейтинг →
     (голосов: 1, оценка 5/5, голосовать можно 1 раз )

    Другие торренты по теме:

  • Земля Чато / Chato’s Land (1972) DVDRip-AVC от Тorrent-Хzona
  • Земля Чато / Chatos Land (1972) HDTVRip от GeneralFilm | P2
  • Земля Чато / Chatos Land (1972) BDRemux 1080p | P, P2
  • Земля Чато / Chatos Land (1972) BDRip от MegaPeer | P, P2


    • Комментарии (0):

      Информация

      Информация

        Посетители, находящиеся в группе Гости, не могут оставлять комментарии в данной новости.

        ↓ Меню



        ↓ Опрос

        А Вы добавили сайт в закладки?
        Да
        Не


        Top 10 за месяц (Фильмы)