.
Авторизация | Регистрация
Хочешь лучшие торренты? Добавь свой email!
Добавить
» » Кавалер Золотой звезды (1950) DVDRip от New-Team скачать торрент бесплатно




    Кавалер Золотой звезды (1950) DVDRip от New-Team скачать торрент бесплатно

    Опубликовал: Админ | Дата: 5-07-2016, 12:57 | Просмотров: 107



    Снималось в: СССР
    Создали в: Мосфильм
    Категория жанра: драма, мелодрама
    Создали в: 1950
    Время просмотра: 01: 50: 36
    Перевод текста: Не требуется
    Субтитры подготовлены: нет
    Оригинальная аудиодорожка: русский
    Главный режиссер: Юлий Райзман

    Актеры

    Сергей Бондарчук, Анатолий Чемодуров, Кира Канаева, Борис Чирков, Николай Комиссаров, Владимир Ратомский, Константин Светлов, Николай Гриценко, Иван Переверзев, Петр Кирюткин, Даниил Ильченко, Мария Яроцкая, Тамара Носова, Степан Каюков, Александра Панова, Борис Битюков...
    Полный список актёров
    Описание:
    По одноимённому роману С.Бабаевского.
    Фронтовик-орденоносец Сергей Тутаринов после войны возвращается в родную станицу с тем, чтобы принять активное участие в ее восстановлении. Его начинания горячо поддерживает секретарь райкома, однако они не находят отклик у председателя райисполкома, остро реагирующего на новые проблемы. Став председателем, Тутаринов последовательно ликвидирует все трудности и начинает строительство районной электростанции...



    Источник: DVD5 R5
    Качество фильма видео: DVDRip
    Тип видео видео: AVI
    Информация о видео: 688x512 (4: 3), 25 fps, XviD ~ 1686 kbps avg, 0.191 bit/pixel
    Информация о звуке: 48 kHz, Dolby Digital AC3 2.0, 192 kbps
    Раздача от:
    MediaInfo

    Общее
    Полное имя : Kavaler.Zolotoy.zvezdy.1950.DVDRip_New-team_by_AVP_Studio.avi
    Формат : AVI
    Формат/Информация : Audio Video Interleave
    Размер файла : 1, 46 Гбайт
    Продолжительность : 1 ч. 50 м.
    Общий поток : 1888 Кбит/сек
    Программа кодирования : VirtualDubMod 1.5.10.3 | www.virtualdub-fr.org || (build 2550/release)
    Библиотека кодирования : VirtualDubMod build 2550/release
    Видео
    Идентификатор : 0
    Формат : MPEG-4 Visual
    Профиль формата : Advanced Simple@L5
    Параметр BVOP формата : 1
    Параметр QPel формата : Нет
    Параметр GMC формата : Без точки перехода
    Параметр матрицы формата : Выборочная
    Идентификатор кодека : XVID
    Идентификатор кодека/Подсказка : XviD
    Продолжительность : 1 ч. 50 м.
    Битрейт : 1686 Кбит/сек
    Ширина : 688 пикселей
    Высота : 512 пикселей
    Соотношение сторон : 4: 3
    Частота кадров : 25, 000 кадров/сек
    Цветовое пространство : YUV
    Субдискретизация насыщенности : 4: 2: 0
    Битовая глубина : 8 бит
    Тип развёртки : Прогрессивная
    Метод сжатия : С потерями
    Бит/(Пиксели*Кадры) : 0.191
    Размер потока : 1, 30 Гбайт (89%)
    Библиотека кодирования : XviD 73
    Аудио
    Идентификатор : 1
    Формат : AC-3
    Формат/Информация : Audio Coding 3
    Расширение режима : CM (complete main)
    Параметр Endianness формата : Big
    Идентификатор кодека : 2000
    Продолжительность : 1 ч. 50 м.
    Вид битрейта : Постоянный
    Битрейт : 192 Кбит/сек
    Каналы : 2 канала
    Расположение каналов : Front: L R
    Частота : 48, 0 КГц
    Метод сжатия : С потерями
    Размер потока : 152 Мбайт (10%)
    Выравнивание : Разделение по промежуткам
    Продолжительность промежутка : 40 мс. (1, 00 видеокадр)
    Время предзагрузки промежутка : 500 мс

    Скриншоты



    Залил: AVPStudio

    Онлайн видео Кавалер Золотой звезды (1950) DVDRip от New


    Размер скачиваемого торрента: 1.46 GB (1565708288 Bytes)

    Кавалер Золотой звезды (1950) DVDRip от New-Team
    загрузка...
    Рейтинг →
     (голосов: 1, оценка 3/5, голосовать можно 1 раз )

    Другие торренты по теме:



      Комментарии (0):

      Информация

      Информация

        Посетители, находящиеся в группе Гости, не могут оставлять комментарии в данной новости.

        ↓ Меню



        ↓ Опрос

        А Вы добавили сайт в закладки?
        Да
        Не


        Top 10 за месяц (Фильмы)