.
Авторизация | Регистрация
Хочешь лучшие торренты? Добавь свой email!
Добавить
» » Страна теней / Shadowlands (1993) WEB-DL 1080p | P, P2, A скачать торрент бесплатно




    Страна теней / Shadowlands (1993) WEB-DL 1080p | P, P2, A скачать торрент бесплатно

    Опубликовал: Админ | Дата: 5-07-2016, 05:00 | Просмотров: 73



    Детально о кино
    Русское название: Страна теней
    Русское название в мировом прокате: Shadowlands
    Создали в: 1993
    Категория жанра: драма, мелодрама, биография
    Главный режиссер: Ричард Аттенборо

    Актеры
    Энтони Хопкинс, Дебра Уингер, Джулиан Феллоуз, Родди Мод-Роксби, Майкл Дэнисон, Эндрю Сиар, Тим МакМуллан, Джон Вуд, Эндрю Хоукинс, Питер Хауэлл

    Сюжет фильма

    Фильм основан на реальных событиях. Действие разворачивается в Оксфорде в 1950-х годах. Фильм повествует об истории трагической любви Льюиса к Джой Грэшем и их короткой супружеской жизни, прерванной её смертью от рака.

    Снималось в: Великобритания
    Киностудия: Price Entertainment, Shadowlands Productions, Spelling Films International
    Время просмотра: 02: 11: 44
    Перевод текста: Профессиональный (двухголосый, закадровый) НТВ+ + Профессиональный (многоголосый, закадровый) т/к Культура + Авторский (одноголосый, закадровый) А.Алексеев
    Файл
    Тип видео: Matroska
    Информация о видео: 1916x812 at 23.976 fps, MPEG-4 AVC, ~4500 kbps avg
    Информация о звуке#1: Russian: 48 kHz, AC3, 2/0 (L, R) ch, ~192 kbps avg |Двухголосый закадровый, НТВ+|
    Информация о звуке#2: Russian: 48 kHz, AC3, 2/0 (L, R) ch, ~192 kbps avg |Многоголосый закадровый, т/к Культура|
    Информация о звуке#3: Russian: 48 kHz, AC3, 2/0 (L, R) ch, ~192 kbps avg |Авторский, А.Алексеев|
    Информация о звуке#4: English: 48 kHz, AAC, 2/0 (L, R) ch, ~160 kbps avg
    Субтитры: English
    ***Сохранены оригинальные главы.
    ***Синхронизация звуковых дорожек - clom.
    MI
    Общее
    Уникальный идентификатор : 226093988024456058334447751520252763657 (0xAA181E40ED92773EA74638A905069E09)
    Полное имя : Strana.tenej.1993.WEB-DL.1080p.mkv
    Формат : Matroska
    Версия формата : Version 2
    Размер файла : 4, 79 Гбайт
    Продолжительность : 2 ч. 11 м.
    Общий поток : 5205 Кбит/сек
    Дата кодирования : UTC 2016-07-03 18: 19: 01
    Программа кодирования : mkvmerge v7.8.0 (;River Man;) 32bit built on Apr 3 2015 12: 11: 22
    Библиотека кодирования : libebml v1.3.1 + libmatroska v1.4.2
    Attachements : cover_land.jpg/small_cover.jpg/small_cover_land.jpg/cover.jpg
    Видео
    Идентификатор : 1
    Формат : AVC
    Формат/Информация : Advanced Video Codec
    Профиль формата : High@L4
    Параметр CABAC формата : Да
    Параметр ReFrames формата : 5 кадров
    Идентификатор кодека : V_MPEG4/ISO/AVC
    Продолжительность : 2 ч. 11 м.
    Ширина : 1916 пикселей
    Высота : 812 пикселей
    Соотношение сторон : 2, 35: 1
    Режим частоты кадров : Постоянный
    Частота кадров : 23, 976 кадра/сек
    Цветовое пространство : YUV
    Субдискретизация насыщенности : 4: 2: 0
    Битовая глубина : 8 бит
    Тип развёртки : Прогрессивная
    Заголовок : Shadowlands.1993.1080p.WEB-DL.AAC2.0.H264-RARBG
    Язык : English
    Default : Да
    Forced : Нет
    Цветовой диапазон : Limited
    Основные цвета : BT.709
    Характеристики трансфера : BT.709
    Коэффициенты матрицы : BT.709
    Аудио #1
    Идентификатор : 2
    Формат : AC-3
    Формат/Информация : Audio Coding 3
    Расширение режима : CM (complete main)
    Параметр Endianness формата : Big
    Идентификатор кодека : A_AC3
    Продолжительность : 2 ч. 11 м.
    Вид битрейта : Постоянный
    Битрейт : 192 Кбит/сек
    Каналы : 2 канала
    Расположение каналов : Front: L R
    Частота : 48, 0 КГц
    Метод сжатия : С потерями
    Размер потока : 181 Мбайт (4%)
    Заголовок : ПД (НТВ+)
    Язык : Russian
    Default : Нет
    Forced : Да
    Аудио #2
    Идентификатор : 3
    Формат : AC-3
    Формат/Информация : Audio Coding 3
    Расширение режима : CM (complete main)
    Параметр Endianness формата : Big
    Идентификатор кодека : A_AC3
    Продолжительность : 2 ч. 11 м.
    Вид битрейта : Постоянный
    Битрейт : 192 Кбит/сек
    Каналы : 2 канала
    Расположение каналов : Front: L R
    Частота : 48, 0 КГц
    Метод сжатия : С потерями
    Размер потока : 181 Мбайт (4%)
    Заголовок : ПМ (ТККультура)
    Язык : Russian
    Default : Нет
    Forced : Да
    Аудио #3
    Идентификатор : 4
    Формат : AC-3
    Формат/Информация : Audio Coding 3
    Расширение режима : CM (complete main)
    Параметр Endianness формата : Big
    Идентификатор кодека : A_AC3
    Продолжительность : 2 ч. 11 м.
    Вид битрейта : Постоянный
    Битрейт : 192 Кбит/сек
    Каналы : 2 канала
    Расположение каналов : Front: L R
    Частота : 48, 0 КГц
    Метод сжатия : С потерями
    Размер потока : 181 Мбайт (4%)
    Заголовок : АП (Алексеев)
    Язык : Russian
    Default : Да
    Forced : Да
    Аудио #4
    Идентификатор : 5
    Формат : AAC
    Формат/Информация : Advanced Audio Codec
    Профиль формата : LC
    Идентификатор кодека : A_AAC
    Продолжительность : 2 ч. 11 м.
    Каналы : 2 канала
    Расположение каналов : Front: L R
    Частота : 48, 0 КГц
    Метод сжатия : С потерями
    Заголовок : Original
    Язык : English
    Default : Нет
    Forced : Нет
    Текст
    Идентификатор : 6
    Формат : UTF-8
    Идентификатор кодека : S_TEXT/UTF8
    Идентификатор кодека/Информация : UTF-8 Plain Text
    Язык : English
    Default : Да
    Forced : Нет
    Меню
    00: 00: 00.000 : en: 1
    00: 05: 55.000 : en: 2
    00: 12: 30.000 : en: 3
    00: 17: 44.000 : en: 4
    00: 27: 27.000 : en: 5
    00: 33: 49.000 : en: 6
    00: 41: 23.000 : en: 7
    00: 51: 14.000 : en: 8
    00: 58: 42.000 : en: 9
    01: 08: 55.000 : en: 10
    01: 16: 51.000 : en: 11
    01: 25: 23.000 : en: 12
    01: 32: 26.000 : en: 13
    01: 48: 48.000 : en: 14
    01: 58: 42.000 : en: 15
    02: 08: 04.000 : en: 16
    Скриншоты



    Онлайн видео Страна теней


    Размер скачиваемого торрента: 4.79 GB (5142858359 Bytes)

    Страна теней/Shadowlands (1993) WEB-DL 1080p | P, P2, A
    загрузка...
    Рейтинг →
     (голосов: 1, оценка 4/5, голосовать можно 1 раз )

    Другие торренты по теме:

  • Страна теней / Shadowlands (1993) WEB-DLRip от MegaPeer | P, P2, A


    • Комментарии (0):

      Информация

      Информация

        Посетители, находящиеся в группе Гости, не могут оставлять комментарии в данной новости.

        ↓ Меню



        ↓ Опрос

        А Вы добавили сайт в закладки?
        Да
        Не


        Top 10 за месяц (Фильмы)