.
Авторизация | Регистрация
Хочешь лучшие торренты? Добавь свой email!
Добавить
» » Дивергент, глава 3: За стеной / Allegiant (2016) BDRip 720p от ExKinoRay | D скачать торрент бесплатно




    Дивергент, глава 3: За стеной / Allegiant (2016) BDRip 720p от ExKinoRay | D скачать торрент бесплатно

    Опубликовал: Админ | Дата: 4-07-2016, 14:01 | Просмотров: 197



    Детально о кино
    Русское название: Дивергент, глава 3: За стеной
    Русское название в мировом прокате: Allegiant
    Создали в: 2016
    Категория жанра: Фантастика, боевик, приключения
    Главный режиссер: Роберт Швентке

    Актеры
    Шэйлин Вудли, Тео Джеймс, Энсел Элгорт, Зои Кравиц, Майлз Теллер, Джефф Дэниелс, Наоми Уоттс, Мэгги Кью, Билл Скарсгард, Кейнан Лонсдейл, Надиа Хилкер, Октавия Спенсер, Дэниэл Дэ Ким, Джонни Уэстон, Энди Бин, Рэй Стивенсон, Мекхай Файфер, Джозеф Дэвид-Джонс, Эшли Джадд, Джош Давендек

    Сюжет фильма

    Джанин мертва и власть над Чикаго от Эрудитов переходит к афракционерам во главе с Эвелин. Они начинают разрушать фракционную систему и не выпускают никого за пределы города. Это вызывает волну недовольства и контрреволюционные настроения. Часть людей объединяется вокруг Джоанны Рейес, называя себя эллигентами. Их группа готова бороться за возвращение фракций. Вооруженное противостояние неизбежно. Между тем, Трис и Фор отправляются в неведомый мир за городской стеной, чтобы найти отцов-основателей нового мирового порядка и узнать шокирующую правду.

    Снималось в: США
    Киностудия: Lionsgate, Red Wagon Productions, Summit Entertainment
    Время просмотра: 02: 00: 33
    Перевод текста: Дублированный | (Централ Партнершип)
    Файл
    Кодек для видео: x264
    Качество фильма: BDRip 720p
    Информация о видео: 1280x536, 3570 Kbit/s, 23.976 fps
    Информация о звуке: Русский (AC3, 6 ch, 640 Кбит/с), (DTS, 6 ch, 1509 Кбит/с), английский (DTS, 6 ch, 1509 Кбит/с)
    Субтитры: Английские
    Релиз подготовил: Автор релиза:

    MI
    Общее
    Уникальный идентификатор : 200278761025495974711211638681368995706 (0x96AC494B817F349BBA3D9C2E8A37277A)
    Полное имя : D: ЗагрузкиAllegiant.2016.D.BDRip.720p.ExKinoRay.mkv
    Формат : Matroska
    Версия формата : Version 2
    Размер файла : 6, 09 Гбайт
    Продолжительность : 2 ч. 0 м.
    Общий поток : 7229 Кбит/сек
    Название фильма : Allegiant.2016.D.BDRip.720p.ExKinoRay
    Дата кодирования : UTC 2016-07-03 06: 57: 10
    Программа кодирования : mkvmerge v5.6.0 (;Kenya Kane;) built on May 27 2012 16: 44: 04
    Библиотека кодирования : libebml v1.2.3 + libmatroska v1.3.0
    Видео
    Идентификатор : 1
    Формат : AVC
    Формат/Информация : Advanced Video Codec
    Профиль формата : High@L4.1
    Параметр CABAC формата : Да
    Параметр ReFrames формата : 5 кадров
    Идентификатор кодека : V_MPEG4/ISO/AVC
    Продолжительность : 2 ч. 0 м.
    Битрейт : 3570 Кбит/сек
    Ширина : 1280 пикселей
    Высота : 536 пикселей
    Соотношение сторон : 2, 40: 1
    Режим частоты кадров : Постоянный
    Частота кадров : 23, 976 (24000/1001) кадра/сек
    Цветовое пространство : YUV
    Субдискретизация насыщенности : 4: 2: 0
    Битовая глубина : 8 бит
    Тип развёртки : Прогрессивная
    Бит/(Пиксели*Кадры) : 0.217
    Размер потока : 2, 89 Гбайт (47%)
    Библиотека кодирования : x264 core 142 r2431+42 c69a006 tMod 8-bit@all X86_64
    Настройки программы : cabac=1/ref=5/deblock=1: -3: -3/analyse=0x3: 0x133/me=umh/subme=10/psy=1/fade_compensate=0.00/psy_rd=1.00: 1.00/mixed_ref=1/me_range=32/chroma_me=1/trellis=2/8x8dct=1/cqm=0/deadzone=21, 11/fast_pskip=0/chroma_qp_offset=-4/threads=16/lookahead_threads=1/sliced_threads=0/nr=0/decimate=0/interlaced=0/bluray_compat=0/constrained_intra=0/fgo=0/bframes=5/b_pyramid=2/b_adapt=2/b_bias=0/direct=3/weightb=1/open_gop=0/weightp=2/keyint=240/keyint_min=23/scenecut=40/intra_refresh=0/rc_lookahead=150/rc=2pass/mbtree=0/bitrate=3570/ratetol=1.0/qcomp=0.60/qpmin=0: 0: 0/qpmax=69: 69: 69/qpstep=4/cplxblur=20.0/qblur=0.5/vbv_maxrate=40000/vbv_bufsize=30000/nal_hrd=none/filler=0/ip_ratio=1.20/pb_ratio=1.30/aq=2: 0.68/aq-sensitivity=10.00/aq-factor=1.00: 1.00: 1.00/aq2=0/aq3=0
    Язык : English
    Default : Да
    Forced : Нет
    Цветовой диапазон : Limited
    Основные цвета : BT.709
    Характеристики трансфера : BT.709
    Коэффициенты матрицы : BT.709
    Аудио #1
    Идентификатор : 2
    Формат : AC-3
    Формат/Информация : Audio Coding 3
    Расширение режима : CM (complete main)
    Параметр Endianness формата : Big
    Идентификатор кодека : A_AC3
    Продолжительность : 2 ч. 0 м.
    Вид битрейта : Постоянный
    Битрейт : 640 Кбит/сек
    Каналы : 6 каналов
    Расположение каналов : Front: L C R, Side: L R, LFE
    Частота : 48, 0 КГц
    Частота кадров : 31, 250 кадров/сек (1536 spf)
    Метод сжатия : С потерями
    Размер потока : 552 Мбайт (9%)
    Заголовок : Дублированный (Централ Партнершип)
    Язык : Russian
    Default : Да
    Forced : Нет
    Аудио #2
    Идентификатор : 3
    Формат : DTS
    Формат/Информация : Digital Theater Systems
    Режим : 16
    Параметр Endianness формата : Big
    Идентификатор кодека : A_DTS
    Продолжительность : 2 ч. 0 м.
    Вид битрейта : Постоянный
    Битрейт : 1509 Кбит/сек
    Каналы : 6 каналов
    Расположение каналов : Front: L C R, Side: L R, LFE
    Частота : 48, 0 КГц
    Частота кадров : 93, 750 кадра/сек (512 spf)
    Битовая глубина : 24 бит
    Метод сжатия : С потерями
    Размер потока : 1, 27 Гбайт (21%)
    Заголовок : Дублированный (Централ Партнершип)
    Язык : Russian
    Default : Нет
    Forced : Нет
    Аудио #3
    Идентификатор : 4
    Формат : DTS
    Формат/Информация : Digital Theater Systems
    Режим : 16
    Параметр Endianness формата : Big
    Идентификатор кодека : A_DTS
    Продолжительность : 2 ч. 0 м.
    Вид битрейта : Постоянный
    Битрейт : 1509 Кбит/сек
    Каналы : 6 каналов
    Расположение каналов : Front: L C R, Side: L R, LFE
    Частота : 48, 0 КГц
    Частота кадров : 93, 750 кадра/сек (512 spf)
    Битовая глубина : 24 бит
    Метод сжатия : С потерями
    Размер потока : 1, 27 Гбайт (21%)
    Язык : English
    Default : Нет
    Forced : Нет
    Текст #1
    Идентификатор : 5
    Формат : UTF-8
    Идентификатор кодека : S_TEXT/UTF8
    Идентификатор кодека/Информация : UTF-8 Plain Text
    Заголовок : Full
    Язык : English
    Default : Нет
    Forced : Нет
    Текст #2
    Идентификатор : 6
    Формат : UTF-8
    Идентификатор кодека : S_TEXT/UTF8
    Идентификатор кодека/Информация : UTF-8 Plain Text
    Заголовок : SDH
    Язык : English
    Default : Нет
    Forced : Нет
    Меню
    00: 00: 00.000 : en: Chapter 1
    00: 09: 46.336 : en: Chapter 2
    00: 16: 54.305 : en: Chapter 3
    00: 25: 52.092 : en: Chapter 4
    00: 32: 45.213 : en: Chapter 5
    00: 37: 26.202 : en: Chapter 6
    00: 45: 49.538 : en: Chapter 7
    00: 53: 31.458 : en: Chapter 8
    00: 58: 18.245 : en: Chapter 9
    01: 07: 21.162 : en: Chapter 10
    01: 13: 46.714 : en: Chapter 11
    01: 19: 51.036 : en: Chapter 12
    01: 26: 40.237 : en: Chapter 13
    01: 33: 12.128 : en: Chapter 14
    01: 40: 24.060 : en: Chapter 15
    01: 46: 18.872 : en: Chapter 16
    Скриншоты


    Онлайн видео Дивергент, глава 3: За стеной


    Размер скачиваемого торрента: 6.09 GB (6536526511 Bytes)

    Дивергент, глава 3: За стеной/Allegiant (2016) BDRip 720p от ExKinoRay | D
    загрузка...
    Рейтинг →
     (голосов: 1, оценка 4/5, голосовать можно 1 раз )

    Другие торренты по теме:

  • Дивергент, глава 2: Инсургент / Insurgent (2015) CAMRip
  • Дивергент, глава 2: Инсургент / Insurgent (2015) WEBRip | Звук с TS
  • Дивергент, глава 2: Инсургент / Insurgent (2015) HDTVRip–AVC | Чистый звук
  • Дивергент, глава 2: Инсургент / Insurgent (2015) HDTVRip | Чистый звук
  • Дивергент, глава 2: Инсургент / Insurgent (2015) HDRip от Scarabey | Чистый звук
  • Дивергент, глава 2: Инсургент / Insurgent (2015) BDRip 720p | iTunes
  • Дивергент, глава 2: Инсургент / Insurgent (2015) Blu-ray 1080p от HDCLUB | RUS Transfer | D | лицензия
  • Дивергент, глава 2: Инсургент / Insurgent (2015) BDRip 720p | Лицензия


    • Комментарии (0):

      Информация

      Информация

        Посетители, находящиеся в группе Гости, не могут оставлять комментарии в данной новости.

        ↓ Меню



        ↓ Опрос

        А Вы добавили сайт в закладки?
        Да
        Не


        Top 10 за месяц (Фильмы)