.
Авторизация | Регистрация
Хочешь лучшие торренты? Добавь свой email!
Добавить
» » Дивергент, глава 3: За стеной / Allegiant (2016) BDRip | D скачать торрент бесплатно




    Дивергент, глава 3: За стеной / Allegiant (2016) BDRip | D скачать торрент бесплатно

    Опубликовал: Админ | Дата: 4-07-2016, 14:01 | Просмотров: 172



    Break the boundaries of your world
    Детально о кино
    Русское название: Дивергент, глава 3: За стеной
    Русское название в мировом прокате: Allegiant
    Создали в: 2016
    Категория жанра: Фантастика, боевик, триллер, детектив, приключения
    Главный режиссер: Роберт Швентке

    Актеры
    Шейлин Вудли, Тео Джеймс, Энсел Элгорт, Зои Кравиц, Майлз Теллер, Джефф Дэниелс, Наоми Уоттс, Мэгги Кью, Билл Скарсгард, Кейнан Лонсдейл, Надиа Хилкер, Октавия Спенсер, Дэниэл Дэ Ким, Джонни Уэстон, Энди Бин, Рэй Стивенсон, Мекхай Файфер, Джозеф Дэвид-Джонс, Эшли Джадд, Джош Давендек

    Сюжет фильма

    Трис и Фор впервые покидают город и своих близких и оказываются в опасном мире за стеной, отделяющей Чикаго, где им открывается шокирующая правда.
    Они должны быстро разобраться, кому можно доверять, так как битва, разгорающаяся за стенами города, угрожает всему человечеству. Чтобы выжить, Трис придется сделать непростой выбор между мужеством, верностью, любовью и необходимостью идти на жертвы.

    Снималось в: США
    Киностудия: Lionsgate, Red Wagon Productions, Summit Entertainment
    Время просмотра: 02: 00: 33
    Перевод текста: Профессиональный (полное дублирование)Централ Партнершип
    Файл
    Качество фильма: BDRip (исх.ALLEGIANT_REMUX_HDCLUB )
    Кодек для видео: XviD
    Информация о видео: 720x304 (2, 35: 1), 23, 976 fps, XviD ~1278 kbps avg, 0.244 bit/pixel
    Информация о звуке: 48 kHz, AC3, 6 ch, ~448.00 kbps avg | русский |Профессиональный (полное дублирование)Централ Партнершип
    Субтитры: Отсутствуют
    Семпл
    Инфо-файл
    Общее
    Полное имя : D: TorrentsЗавершенныеAllegiant.2016.D.BDRip_by stillet.avi
    Формат : AVI
    Формат/Информация : Audio Video Interleave
    Размер файла : 1, 46 Гбайт
    Продолжительность : 2 ч. 0 м.
    Общий поток : 1735 Кбит/сек
    Название фильма : Allegiant
    Режиссёр : stillet
    Программа кодирования : VirtualDubMod 1.5.10.3 (build 2550/release)
    Библиотека кодирования : VirtualDub build 35491/release
    Видео
    Идентификатор : 0
    Формат : MPEG-4 Visual
    Профиль формата : Advanced Simple@L5
    Параметр BVOP формата : 2
    Параметр QPel формата : Нет
    Параметр GMC формата : Без точки перехода
    Параметр матрицы формата : Default (MPEG)
    Идентификатор кодека : XVID
    Идентификатор кодека/Подсказка : XviD
    Продолжительность : 2 ч. 0 м.
    Битрейт : 1278 Кбит/сек
    Ширина : 720 пикселей
    Высота : 304 пикселя
    Соотношение сторон : 2, 35: 1
    Частота кадров : 23, 976 (24000/1001) кадра/сек
    Цветовое пространство : YUV
    Субдискретизация насыщенности : 4: 2: 0
    Битовая глубина : 8 бит
    Тип развёртки : Прогрессивная
    Метод сжатия : С потерями
    Бит/(Пиксели*Кадры) : 0.244
    Размер потока : 1, 08 Гбайт (74%)
    Библиотека кодирования : XviD 73
    Аудио
    Идентификатор : 1
    Формат : AC-3
    Формат/Информация : Audio Coding 3
    Расширение режима : CM (complete main)
    Параметр Endianness формата : Big
    Идентификатор кодека : 2000
    Продолжительность : 2 ч. 0 м.
    Вид битрейта : Постоянный
    Битрейт : 448 Кбит/сек
    Каналы : 6 каналов
    Расположение каналов : Front: L C R, Side: L R, LFE
    Частота : 48, 0 КГц
    Частота кадров : 31, 250 кадров/сек (1536 spf)
    Метод сжатия : С потерями
    Задержка видео : 2 с. 800 мс.
    Размер потока : 386 Мбайт (26%)
    Выравнивание : Разделение по промежуткам
    Продолжительность промежутка : 42 мс. (1, 00 видеокадр)
    Время предзагрузки промежутка : 500 мс.
    Скриншоты

    Залил: admiralkz

    Онлайн видео Дивергент, глава 3: За стеной


    Размер скачиваемого торрента: 1.46 GB (1569070226 Bytes)

    Дивергент, глава 3: За стеной/Allegiant (2016) BDRip | D
    загрузка...
    Рейтинг →
     (голосов: 1, оценка 5/5, голосовать можно 1 раз )

    Другие торренты по теме:

  • Дивергент, глава 2: Инсургент / Insurgent (2015) CAMRip
  • Дивергент, глава 2: Инсургент / Insurgent (2015) WEBRip | Звук с TS
  • Дивергент, глава 2: Инсургент / Insurgent (2015) HDTVRip–AVC | Чистый звук
  • Дивергент, глава 2: Инсургент / Insurgent (2015) HDTVRip | Чистый звук
  • Дивергент, глава 2: Инсургент / Insurgent (2015) HDRip от Scarabey | Чистый звук
  • Дивергент, глава 2: Инсургент / Insurgent (2015) BDRip 720p | iTunes
  • Дивергент, глава 2: Инсургент / Insurgent (2015) Blu-ray 1080p от HDCLUB | RUS Transfer | D | лицензия
  • Дивергент, глава 2: Инсургент / Insurgent (2015) BDRip 720p | Лицензия


    • Комментарии (0):

      Информация

      Информация

        Посетители, находящиеся в группе Гости, не могут оставлять комментарии в данной новости.

        ↓ Меню



        ↓ Опрос

        А Вы добавили сайт в закладки?
        Да
        Не


        Top 10 за месяц (Фильмы)