.
Авторизация | Регистрация
Хочешь лучшие торренты? Добавь свой email!
Добавить
» » Тайны острова Мако / Mako Mermaids (2016) WEBRip 720p | RUS SUB скачать торрент бесплатно




    Тайны острова Мако / Mako Mermaids (2016) WEBRip 720p | RUS SUB скачать торрент бесплатно

    Опубликовал: Админ | Дата: 4-07-2016, 14:01 | Просмотров: 243



    Детально о кино
    Русское название: Тайны Острова Мако, 3 сезон любимого сериала
    Русское название в мировом прокате: Mako Mermaids
    Создали в: 2016
    Категория жанра: фэнтези, драма, мелодрама, комедия, приключения, семейный
    Снималось в: Австралия, Jonathan M. Shiff Productions
    Время просмотра: 16 x ~ 00: 24: 22
    Перевод текста: русские субтитры (Перевод и тайминг: vk.com/makomermaids
    Mako Mermaids Russia)
    Главный режиссер: Грант Браун, Ивэн Кларри

    Актеры
    Иззи Дюрант, Элли Бертрам, Linda Ngo, Чай Ромруен, Джемма Форсайт, Доминик Дойчер, Брук Николь Ли, Роуэн Хиллс, Тейлор Глокнер, Керит Эткинсон

    Сюжет фильма
    Австралийский молодёжный сериал, который пришёлся по вкусу так же подросткам в России продолжает интриговать своей сюжетной линией. В сериале присутствует волшебство и тайны, которые окружают обычного парня Зака. Ничего не подозревая, он отправляется на остров Мако, где планирует отдохнуть от городской суеты. Не зная, какие чудеса стоят за этим островом, он ничего не подозревая решил искупаться в полнолуние и тут же обретает удивительные свойства. Когда русалки, охраняющие остров, поняли, что нужно исправлять ситуацию, они превратились в девушек и начали охоту на Зака, что бы отнять у него волшебные способности...
    3 сезон любимого сериала... появление дракона...
    Файл:
    Тип видео: MP4
    Качество фильма: WEBRip 720p
    Информация о видео: MPEG-AVC, 1280x720, 30, 000 кадр/с, ~ 1 800 Кбит/с
    Информация о звуке: 44, 1 КГц, AAC, 2.0, 132 Кбит/с -английский
    Субтитры: русские вшитые
    Качество видео посредственное. Для ознакомления.
    Содержание. 3 сезон любимого сериала. 16 эпизодов

    01. Визит с Востока
    02. Не поверишь, пока не увидишь
    03. Рецепт успеха
    04. Прочистка
    05. Магическая шкатулка
    06. Новые Начинания
    07. Неожиданный поворот
    08. Ход Дракона
    09. Удача Отвернулась
    10. Пустые Желания
    11. Найденная Потеря
    12. Проблема с доверием
    13. Умение отпускать
    15. Легенда Чаолонг
    16. Возвращение домой
    MI

    3.01 RUS SUB.mp4
    Формат : MPEG-4
    Профиль формата : Base Media
    Идентификатор кодека : isom (isom/iso2/avc1/mp41)
    Размер файла : 338 Мбайт
    Продолжительность : 24 м.
    Общий поток : 1943 Кбит/сек
    Программа кодирования : Lavf56.40.101
    Видео
    Идентификатор : 1
    Формат : AVC
    Формат/Информация : Advanced Video Codec
    Профиль формата : High@L3.1
    Параметр CABAC формата : Да
    Параметр ReFrames формата : 3 кадра
    Идентификатор кодека : avc1
    Идентификатор кодека/Информация : Advanced Video Coding
    Продолжительность : 24 м.
    Битрейт : 1800 Кбит/сек
    Ширина : 1280 пикселей
    Высота : 688 пикселей
    Соотношение сторон : 1, 85: 1
    Режим частоты кадров : Постоянный
    Частота кадров : 30, 000 кадров/сек
    Цветовое пространство : YUV
    Субдискретизация насыщенности : 4: 2: 0
    Битовая глубина : 8 бит
    Тип развёртки : Прогрессивная
    Бит/(Пиксели*Кадры) : 0.068
    Размер потока : 314 Мбайт (93%)
    Библиотека кодирования : x264 core 148
    Настройки программы : cabac=1/ref=3/deblock=1: 0: 0/analyse=0x3: 0x113/me=hex/subme=7/psy=1/psy_rd=1.00: 0.00/mixed_ref=1/me_range=16/chroma_me=0/trellis=1/8x8dct=1/cqm=0/deadzone=21, 11/fast_pskip=1/chroma_qp_offset=-2/threads=21/lookahead_threads=3/sliced_threads=0/nr=0/decimate=1/interlaced=0/bluray_compat=0/constrained_intra=0/bframes=3/b_pyramid=1/b_adapt=1/b_bias=0/direct=1/weightb=1/open_gop=0/weightp=2/keyint=250/keyint_min=25/scenecut=40/intra_refresh=0/rc_lookahead=40/rc=2pass/mbtree=1/bitrate=1800/ratetol=1.0/qcomp=0.60/qpmin=0/qpmax=69/qpstep=4/cplxblur=20.0/qblur=0.5/ip_ratio=1.41/aq=1: 1.00
    Аудио
    Идентификатор : 2
    Формат : AAC
    Формат/Информация : Advanced Audio Codec
    Профиль формата : LC
    Идентификатор кодека : 40
    Продолжительность : 24 м.
    Вид битрейта : Постоянный
    Битрейт : 132 Кбит/сек
    Каналы : 2 канала
    Расположение каналов : Front: L R
    Частота : 44, 1 КГц
    Частота кадров : 43, 066 кадра/сек (1024 spf)
    Метод сжатия : С потерями
    Размер потока : 23, 4 Мбайт (7%)
    Default : Да
    Alternate group : 1
    Скриншоты




    Онлайн видео Тайны острова Мако


    Размер скачиваемого торрента: 5.67 GB (6084771978 Bytes)

    Тайны острова Мако/Mako Mermaids (2016) WEBRip 720p | RUS SUB
    загрузка...
    Рейтинг →
     (голосов: 1, оценка 5/5, голосовать можно 1 раз )

    Другие торренты по теме:

  • Тайны острова Мако / Mako Mermaids (2015) WEBRip | Alternative Production
  • Тайны острова Мако / Mako Mermaids (2016) WEBRip 720p от ExKinoRay | L
  • Тайны острова Мако / Mako Mermaids (2016) WEB-DLRip 720p от ExKinoRay | Alt Pro
  • Тайны острова Мако / Mako Mermaids (2013-2016) WEB-DLRip от ExKinoRay | Disney, Alt Pro


    • Комментарии (0):

      Информация

      Информация

        Посетители, находящиеся в группе Гости, не могут оставлять комментарии в данной новости.

        ↓ Меню



        ↓ Опрос

        А Вы добавили сайт в закладки?
        Да
        Не


        Top 10 за месяц (Фильмы)