.
Авторизация | Регистрация
Хочешь лучшие торренты? Добавь свой email!
Добавить
» » Порочные связи / Conversations with Other Women (2005) BDRip 1080p | P2 скачать торрент бесплатно




    Порочные связи / Conversations with Other Women (2005) BDRip 1080p | P2 скачать торрент бесплатно

    Опубликовал: Админ | Дата: 4-07-2016, 05:00 | Просмотров: 110



    Детально о кино
    Русское название: Порочные связи
    Русское название в мировом прокате: Conversations with Other Women
    Создали в: 2005
    Категория жанра: драма, мелодрама, комедия
    Главный режиссер: Ганс Каноза

    Актеры
    Аарон Экхарт, Хелена Бонем Картер, Юрий Цыкин, Брайан Джерати, Брианна Браун, Томас Леннон, Эрик Эйдем, Нора Зеетнер, Дэвид Франклин, Оливия Уайлд

    Сюжет фильма

    Двое людей встретились на свадьбе — мужчина и женщина. Ни один из них не свободен. Но почему же так тянет друг к другу? Шаг за шагом приоткрывается завеса тайны. Так ли уж случайна эта встреча? И что их связывало в прошлом?

    Снималось в: Великобритания, США
    Киностудия: Gordonstreet Pictures, Fabrication Films, Prophecy Pictures
    Время просмотра: 01: 25: 35
    Перевод текста: Профессиональный (двухголосый, закадровый) Videogram
    Файл
    Тип видео: Matroska
    Информация о видео: 1920x1080 at 24.000 fps, x264@L4.1, ~11000 kbps avg
    Информация о звуке#1: Russian: 48 kHz, AC3, 3/2 (L, C, R, l, r) + LFE ch, ~448 kbps avg |Двухголосый закадровый, Videogram|
    Информация о звуке#2: English: 48 kHz, AC3, 3/2 (L, C, R, l, r) + LFE ch, ~448 kbps avg
    Субтитры: Russian, English
    MI
    Общее
    Уникальный идентификатор : 232703445800105108409839524639753818421 (0xAF110DAE6E4338038CE54EA9DFFAD135)
    Полное имя : Conversations.with.Other.Women.2005.BDRip.(1080p).mkv
    Формат : Matroska
    Версия формата : Version 4/Version 2
    Размер файла : 7, 11 Гбайт
    Продолжительность : 1 ч. 25 м.
    Общий поток : 11, 9 Мбит/сек
    Название фильма : Conversations with Other Women (2005)
    Дата кодирования : UTC 2016-06-30 13: 52: 37
    Программа кодирования : mkvmerge v6.9.1 (;Blue Panther;) 64bit built on Apr 18 2014 18: 23: 38
    Библиотека кодирования : libebml v1.3.0 + libmatroska v1.4.1
    Видео
    Идентификатор : 1
    Формат : AVC
    Формат/Информация : Advanced Video Codec
    Профиль формата : High@L4.1
    Параметр CABAC формата : Да
    Параметр ReFrames формата : 4 кадра
    Идентификатор кодека : V_MPEG4/ISO/AVC
    Продолжительность : 1 ч. 25 м.
    Битрейт : 11, 0 Мбит/сек
    Ширина : 1920 пикселей
    Высота : 1080 пикселей
    Соотношение сторон : 16: 9
    Режим частоты кадров : Постоянный
    Частота кадров : 24, 000 кадра/сек
    Цветовое пространство : YUV
    Субдискретизация насыщенности : 4: 2: 0
    Битовая глубина : 8 бит
    Тип развёртки : Прогрессивная
    Бит/(Пиксели*Кадры) : 0.221
    Размер потока : 6, 43 Гбайт (90%)
    Заголовок : Conversations with Other Women (2005)
    Библиотека кодирования : x264 core 130 r2273 b3065e6
    Настройки программы : cabac=1/ref=4/deblock=1: -3: -3/analyse=0x3: 0x133/me=umh/subme=11/psy=1/psy_rd=1.00: 0.10/mixed_ref=1/me_range=32/chroma_me=1/trellis=2/8x8dct=1/cqm=0/deadzone=21, 11/fast_pskip=1/chroma_qp_offset=-3/threads=6/lookahead_threads=1/sliced_threads=0/nr=0/decimate=1/interlaced=0/bluray_compat=0/constrained_intra=0/bframes=5/b_pyramid=2/b_adapt=2/b_bias=0/direct=3/weightb=1/open_gop=0/weightp=2/keyint=250/keyint_min=23/scenecut=40/intra_refresh=0/rc_lookahead=60/rc=2pass/mbtree=1/bitrate=11000/ratetol=1.0/qcomp=0.60/qpmin=0/qpmax=69/qpstep=4/cplxblur=20.0/qblur=0.5/ip_ratio=1.40/aq=1: 1.00
    Язык : English
    Default : Да
    Forced : Нет
    Аудио #1
    Идентификатор : 2
    Формат : AC-3
    Формат/Информация : Audio Coding 3
    Расширение режима : CM (complete main)
    Параметр Endianness формата : Big
    Идентификатор кодека : A_AC3
    Продолжительность : 1 ч. 25 м.
    Вид битрейта : Постоянный
    Битрейт : 448 Кбит/сек
    Каналы : 6 каналов
    Расположение каналов : Front: L C R, Side: L R, LFE
    Частота : 48, 0 КГц
    Метод сжатия : С потерями
    Размер потока : 274 Мбайт (4%)
    Заголовок : AC3, 6 ch, 448 Kbps, DVO
    Язык : Russian
    Default : Да
    Forced : Нет
    Аудио #2
    Идентификатор : 3
    Формат : AC-3
    Формат/Информация : Audio Coding 3
    Расширение режима : CM (complete main)
    Параметр Endianness формата : Big
    Идентификатор кодека : A_AC3
    Продолжительность : 1 ч. 25 м.
    Вид битрейта : Постоянный
    Битрейт : 448 Кбит/сек
    Каналы : 6 каналов
    Расположение каналов : Front: L C R, Side: L R, LFE
    Частота : 48, 0 КГц
    Метод сжатия : С потерями
    Размер потока : 274 Мбайт (4%)
    Заголовок : AC3, 6 ch, 448 Kbps, Original
    Язык : English
    Default : Нет
    Forced : Нет
    Текст #1
    Идентификатор : 4
    Формат : UTF-8
    Идентификатор кодека : S_TEXT/UTF8
    Идентификатор кодека/Информация : UTF-8 Plain Text
    Язык : Russian
    Default : Нет
    Forced : Нет
    Текст #2
    Идентификатор : 5
    Формат : UTF-8
    Идентификатор кодека : S_TEXT/UTF8
    Идентификатор кодека/Информация : UTF-8 Plain Text
    Язык : English
    Default : Нет
    Forced : Нет
    Меню
    00: 00: 00.000 : en: Chapter 01
    00: 02: 05.790 : en: Chapter 02
    00: 07: 29.380 : en: Chapter 03
    00: 19: 19.020 : en: Chapter 04
    00: 26: 38.280 : en: Chapter 05
    00: 35: 58.000 : en: Chapter 06
    00: 44: 22.650 : en: Chapter 07
    00: 59: 03.460 : en: Chapter 08
    01: 07: 36.720 : en: Chapter 09
    01: 14: 51.840 : en: Chapter 10
    01: 21: 45.340 : en: Chapter 11
    Скриншоты



    Онлайн видео Порочные связи


    Размер скачиваемого торрента: 7.11 GB (7629701225 Bytes)

    Порочные связи/Conversations with Other Women (2005) BDRip 1080p | P2
    загрузка...
    Рейтинг →
     (голосов: 1, оценка 4/5, голосовать можно 1 раз )

    Другие торренты по теме:

  • Порочные игры / Stoker (2013) BDRip-AVC от potroks | L1
  • Порочные игры / Stoker (2013) BDRip 720p от MediaClub | P, A
  • OST - Порочные игры / Stoker (2013) MP3 скачать через торрент бесплатно
  • Порочные круги / Vicious Circles (1997) DVDRip | P2
  • Порочные губы / Vicious Lips (1986) HDTV 1080i от Generalfilm скачать через торрент бесплатно
  • Записки Тинто Брасса: Порочные отношения / Unchaste relatioships (2002) Blu-Ray 1080p | P скачать через торрент бесплатно
  • Сладкие и порочные / Sweet / Vicious (2016-2017) HDTVRip 720p | L


    • Комментарии (0):

      Информация

      Информация

        Посетители, находящиеся в группе Гости, не могут оставлять комментарии в данной новости.

        ↓ Меню



        ↓ Опрос

        А Вы добавили сайт в закладки?
        Да
        Не


        Top 10 за месяц (Фильмы)