.
Авторизация | Регистрация
Хочешь лучшие торренты? Добавь свой email!
Добавить
» » Инсайдеры / Naeboojadeul (2015) WEB-DLRip | L2 | Режиссерская версия скачать торрент бесплатно




    Инсайдеры / Naeboojadeul (2015) WEB-DLRip | L2 | Режиссерская версия скачать торрент бесплатно

    Опубликовал: Админ | Дата: 4-07-2016, 05:00 | Просмотров: 52



    Детально о кино
    Русское название: Инсайдеры
    Русское название в мировом прокате: Naeboojadeul
    Создали в: 2015
    Категория жанра: Триллер, Драма, Криминал
    Главный режиссер: У Мин-хо

    Актеры
    Ли Бён-хон, Чо Сын-у, Пэк Юн-щик, Ли Гён-ён, Пэ Сон-у, Чо Джэ-юн, Ким Хон-пха, Ю Джэ-мён, Чон Ми-сон, Ким И-сон, Чан Хёк-чин, Ким Бён-ок

    Сюжет фильма

    Главный редактор влиятельной консервативной газеты Ли Кан-хи продвигает кандидата в президенты Чан Пхир-у в лидеры предвыборной гонки. За этой кампанией стоит тайная сделка с крупнейшим спонсором газеты. Ан Сан-гу выполняет различные поручения влиятельных людей и предан своему делу. Однажды его подставляют, и месть не заставит себя долго ждать.
    Присутствует Ненормативная Лексика

    Снималось в: Южная Корея
    Киностудия: 1064 Studio
    Время просмотра: 03: 00: 30
    Перевод текста: любительский двухголосный, закадровый den904 DeadSno
    Автор перевода: Сергей Скворцов
    Файл
    Кодек для видео: XviD
    Качество фильма: WEB-DLRip
    Информация о видео: 720x304 (1.875), 23.976 fps ~ 1460 Kbps
    Информация о звуке: MP3, 48 KHz 2 ch ~ 192 Kb/s
    Субтитры: отсутствуют
    MI:

    Общее
    Полное имя : Q: TorFNaeboojadeul.avi
    Формат : AVI
    Формат/Информация : Audio Video Interleave
    Профиль формата : OpenDML
    Размер файла : 2, 10 Гбайт
    Продолжительность : 3 ч. 0 м.
    Общий поток : 1668 Кбит/сек
    Видео
    Идентификатор : 0
    Формат : MPEG-4 Visual
    Профиль формата : Advanced Simple@L5
    Параметр BVOP формата : 1
    Параметр QPel формата : Нет
    Параметр GMC формата : Без точки перехода
    Параметр матрицы формата : Default (H.263)
    Идентификатор кодека : XVID
    Идентификатор кодека/Подсказка : XviD
    Продолжительность : 3 ч. 0 м.
    Битрейт : 1464 Кбит/сек
    Ширина : 720 пикселей
    Высота : 304 пикселя
    Соотношение сторон : 1, 875
    Частота кадров : 23, 976 кадра/сек
    Цветовое пространство : YUV
    Субдискретизация насыщенности : 4: 2: 0
    Битовая глубина : 8 бит
    Тип развёртки : Прогрессивная
    Метод сжатия : С потерями
    Бит/(Пиксели*Кадры) : 0.279
    Размер потока : 1, 85 Гбайт (88%)
    Библиотека кодирования : XviD 1.2.1 (UTC 2008-12-04)
    Аудио
    Идентификатор : 1
    Формат : MPEG Audio
    Версия формата : Version 1
    Профиль формата : Layer 3
    Идентификатор кодека : 55
    Идентификатор кодека/Подсказка : MP3
    Продолжительность : 3 ч. 0 м.
    Вид битрейта : Постоянный
    Битрейт : 192 Кбит/сек
    Каналы : 2 канала
    Частота : 48, 0 КГц
    Метод сжатия : С потерями
    Размер потока : 248 Мбайт (12%)
    Выравнивание : Соединение по промежуткам
    Продолжительность промежутка : 42 мс. (1, 00 видеокадр)
    Время предзагрузки промежутка : 504 мс.
    Библиотека кодирования : LAME3.99r
    Настройки программы : -m s -V 4 -q 0 -lowpass 18.6 -b 192

    Скриншоты


    Онлайн видео Инсайдеры


    Размер скачиваемого торрента: 2.10 GB (2257500710 Bytes)

    Инсайдеры/Naeboojadeul (2015) WEB-DLRip | L2 | Режиссерская версия
    загрузка...
    Рейтинг →
     (голосов: 1, оценка 4/5, голосовать можно 1 раз )

    Другие торренты по теме:



      Комментарии (0):

      Информация

      Информация

        Посетители, находящиеся в группе Гости, не могут оставлять комментарии в данной новости.

        ↓ Меню



        ↓ Опрос

        А Вы добавили сайт в закладки?
        Да
        Не


        Top 10 за месяц (Фильмы)