.
Авторизация | Регистрация
Хочешь лучшие торренты? Добавь свой email!
Добавить
» » Скорпион / Scorpio (1973) BDRip от Koenig | P скачать торрент бесплатно




    Скорпион / Scorpio (1973) BDRip от Koenig | P скачать торрент бесплатно

    Опубликовал: Админ | Дата: 3-07-2016, 05:00 | Просмотров: 41



    Детально о кино
    Русское название: Скорпион
    Русское название в мировом прокате: Scorpio
    Создали в: 1973
    Категория жанра: Боевик, триллер, драма
    Главный режиссер: Майкл Уиннер

    Актеры
    Ален Делон, Бёрт Ланкастер, Пол Скофилд, Джон Коликос, Гэйл Ханникат, Дж.Д. Кэннон, Джоэнн Линвилл, Мел Стюарт, Владек Шейбал, Мэри Мод

    Сюжет фильма

    Американский шпион Джеральд Кросс для выполнения грязной работы прибегает к помощи молодого и напористого француза Жана Лорье, считая его своим учеником и другом. Наступает момент, когда Кросс решает выйти из Управления и завязать. Боссы не желают отпустить его, и он вынужден бежать из страны. Но он не предусмотрел одного: чтобы найти и убрать его, руководители Управления сами обращаются к Жану, ведь он лучше всех знает своего учителя, и лишь он один в состоянии разыскать его. В случае успеха Жан займет место Кросса. Но события принимают неожиданный оборот…

    Снималось в: США
    Киностудия: The Mirisch Corporation, Scimitar Productions
    Время просмотра: 01: 54: 34
    Перевод текста: Профессиональный многоголосый
    Файл
    Качество фильма: BDRip
    Информация о видео: XviD, 1612 Кбит/с, 720x392, 23.976 кадр/с
    Информация о звуке: AC3, 1 ch, 192 Кбит/с
    MediaInfo
    Общее
    Полное имя : Scorpio.1973.BDRip.avi
    Формат : AVI
    Формат/Информация : Audio Video Interleave
    Размер файла : 1, 45 Гбайт
    Продолжительность : 1 ч. 54 м.
    Общий поток : 1813 Кбит/сек
    Программа кодирования : VirtualDubMod 1.5.10.2 (build 2540/release)
    Библиотека кодирования : VirtualDubMod build 2540/release
    Видео
    Идентификатор : 0
    Формат : MPEG-4 Visual
    Профиль формата : Advanced Simple@L5
    Параметр BVOP формата : 2
    Параметр QPel формата : Да
    Параметр GMC формата : Без точки перехода
    Параметр матрицы формата : Default (H.263)
    Идентификатор кодека : XVID
    Идентификатор кодека/Подсказка : XviD
    Продолжительность : 1 ч. 54 м.
    Битрейт : 1612 Кбит/сек
    Ширина : 720 пикселей
    Высота : 392 пикселя
    Соотношение сторон : 1, 85: 1
    Частота кадров : 23, 976 кадра/сек
    Цветовое пространство : YUV
    Субдискретизация насыщенности : 4: 2: 0
    Битовая глубина : 8 бит
    Тип развёртки : Прогрессивная
    Метод сжатия : С потерями
    Бит/(Пиксели*Кадры) : 0.238
    Размер потока : 1, 29 Гбайт (89%)
    Библиотека кодирования : XviD 1.2.0.dev47 (UTC 2006-11-01)
    Аудио
    Идентификатор : 1
    Формат : AC-3
    Формат/Информация : Audio Coding 3
    Расширение режима : CM (complete main)
    Параметр Endianness формата : Big
    Идентификатор кодека : 2000
    Продолжительность : 1 ч. 54 м.
    Вид битрейта : Постоянный
    Битрейт : 192 Кбит/сек
    Каналы : 1 канал
    Расположение каналов : Front: C
    Частота : 48, 0 КГц
    Метод сжатия : С потерями
    Размер потока : 157 Мбайт (11%)
    Выравнивание : Разделение по промежуткам
    Продолжительность промежутка : 42 мс. (1, 00 видеокадр)
    Время предзагрузки промежутка : 500 мс.
    Сравнение
    http://screenshotcomparison.com/comparison/177199
    Скриншоты

    Залил: Koenig602

    Онлайн видео Скорпион


    Размер скачиваемого торрента: 1.45 GB (1558063104 Bytes)

    Скорпион/Scorpio (1973) BDRip от Koenig | P
    загрузка...
    Рейтинг →
     (голосов: 1, оценка 3/5, голосовать можно 1 раз )

    Другие торренты по теме:

  • Скорпион / Scorpio (1973) DVDRip
  • Скорпион / Scorpio (1973) BDRip-AVC от ExKinoRay | P


    • Комментарии (0):

      Информация

      Информация

        Посетители, находящиеся в группе Гости, не могут оставлять комментарии в данной новости.

        ↓ Меню



        ↓ Опрос

        А Вы добавили сайт в закладки?
        Да
        Не


        Top 10 за месяц (Фильмы)