.
Авторизация | Регистрация
Хочешь лучшие торренты? Добавь свой email!
Добавить
» » Лето белой воды / White Water Summer (1987) WEB-DL 720p | P скачать торрент бесплатно




    Лето белой воды / White Water Summer (1987) WEB-DL 720p | P скачать торрент бесплатно

    Опубликовал: Админ | Дата: 3-07-2016, 05:00 | Просмотров: 45



    Детально о кино
    Русское название: Лето белой воды/Лето у белой воды/Ревущие воды
    Русское название в мировом прокате: White Water Summer
    Создали в: 1987
    Категория жанра: драма, приключения
    Главный режиссер: Джефф Блекнер

    Актеры

    Шон Астин— Алан, Кевин Бэйкон— Вик, Джонотан Уорд— Митч, К. С. Мартел— Джордж, Мэтт Эдлер— Крис, Чарльз Сиберт— Джерри Блок, Кэролайн Мак Уильямс— Виржиния Блок, Джозеф Пассеррелли— владелец магазина.

    Сюжет фильма

    Классический пример пубертатной драмы, связанной с мироощущением, психологией, поведением подростков. О событиях своего детства рассказывает повзрослевший Элан. Зритель переносится вместе с ним в дни, когда Элан и три других, более старших подростка под руководством молодого инструктора Вика отправились в поход. Лес, горы, бурная река, мост над пропастью… Романтика! Но одна ли романтика?

    Снималось в: США
    Киностудия: Columbia Pictures Corporation, Polar Entertainment
    Время просмотра: 01: 29: 45
    Перевод текста: Профессиональный многоголосый, Оригинал
    Файл
    Качество фильма: WEB-DL 720p
    Информация о видео: 1280x542 (2, 35: 1), 23.976 fps, MPEG-4 AVC, 3959 Kbps
    Информация о звуке:
    Информация о звуке #1: AC3, 192 Kbps, 48.0 KHz, 2 ch (Rus)Профессиональный многоголосый, OPT
    Информация о звуке #2: AC3, 192 Kbps, 48.0 KHz, 2 ch (Rus)Профессиональный многоголосый, НТВ
    Информация о звуке #3: AC3, 192 Kbps, 48.0 KHz, 2 ch (Rus)Профессиональный многоголосый, СТС
    Информация о звуке #4: AAC, 48.0 KHz, 2 ch (Eng)Оригинал
    Информация о звуке #5: AC3, 384 Kbps, 48.0 KHz, 6 ch (Eng)Оригинал
    Субтитры: Русские, Английские
    Скриншоты


    MediaInfo
    Формат : Matroska
    Версия формата : Version 2
    Размер файла : 3, 23 Гбайт
    Продолжительность : 1 ч. 29 м.
    Общий поток : 5149 Кбит/сек
    Дата кодирования : UTC 2016-06-27 12: 00: 24
    Программа кодирования : mkvmerge v5.4.0 (;Piper;) built on Mar 10 2012 13: 34: 39
    Библиотека кодирования : libebml v1.2.3 + libmatroska v1.3.0
    Видео
    Идентификатор : 1
    Формат : AVC
    Формат/Информация : Advanced Video Codec
    Профиль формата : Main@L3.1
    Параметр CABAC формата : Нет
    Параметр ReFrames формата : 2 кадра
    Идентификатор кодека : V_MPEG4/ISO/AVC
    Продолжительность : 1 ч. 29 м.
    Ширина : 1280 пикселей
    Высота : 542 пикселя
    Соотношение сторон : 2, 35: 1
    Режим частоты кадров : Постоянный
    Частота кадров : 23, 976 кадра/сек
    Цветовое пространство : YUV
    Субдискретизация насыщенности : 4: 2: 0
    Битовая глубина : 8 бит
    Тип развёртки : Прогрессивная
    Заголовок : White Water Summer/Лето белой воды/Лето у белой воды/Ревущие воды (1987)
    Язык : English
    Default : Да
    Forced : Нет
    Основные цвета : BT.709
    Характеристики трансфера : BT.709
    Коэффициенты матрицы : BT.709
    colour_range : Limited
    Аудио #1
    Идентификатор : 2
    Формат : AC-3
    Формат/Информация : Audio Coding 3
    Расширение режима : CM (complete main)
    Параметр Endianness формата : Big
    Идентификатор кодека : A_AC3
    Продолжительность : 1 ч. 29 м.
    Вид битрейта : Постоянный
    Битрейт : 192 Кбит/сек
    Каналы : 2 канала
    Расположение каналов : Front: L R
    Частота : 48, 0 КГц
    Битовая глубина : 16 бит
    Метод сжатия : С потерями
    Размер потока : 123 Мбайт (4%)
    Заголовок : MVO (Russian) OPT
    Язык : Russian
    Default : Да
    Forced : Нет
    Аудио #2
    Идентификатор : 3
    Формат : AC-3
    Формат/Информация : Audio Coding 3
    Расширение режима : CM (complete main)
    Параметр Endianness формата : Big
    Идентификатор кодека : A_AC3
    Продолжительность : 1 ч. 29 м.
    Вид битрейта : Постоянный
    Битрейт : 192 Кбит/сек
    Каналы : 2 канала
    Расположение каналов : Front: L R
    Частота : 48, 0 КГц
    Битовая глубина : 16 бит
    Метод сжатия : С потерями
    Размер потока : 123 Мбайт (4%)
    Заголовок : MVO (Russian) НТВ
    Язык : Russian
    Default : Нет
    Forced : Нет
    Аудио #3
    Идентификатор : 4
    Формат : AC-3
    Формат/Информация : Audio Coding 3
    Расширение режима : CM (complete main)
    Параметр Endianness формата : Big
    Идентификатор кодека : A_AC3
    Продолжительность : 1 ч. 29 м.
    Вид битрейта : Постоянный
    Битрейт : 192 Кбит/сек
    Каналы : 2 канала
    Расположение каналов : Front: L R
    Частота : 48, 0 КГц
    Битовая глубина : 16 бит
    Метод сжатия : С потерями
    Размер потока : 123 Мбайт (4%)
    Заголовок : MVO (Russian) СТС
    Язык : Russian
    Default : Нет
    Forced : Нет
    Аудио #4
    Идентификатор : 5
    Формат : AAC
    Формат/Информация : Advanced Audio Codec
    Профиль формата : LC
    Идентификатор кодека : A_AAC
    Продолжительность : 1 ч. 29 м.
    Каналы : 2 канала
    Расположение каналов : Front: L R
    Частота : 48, 0 КГц
    Метод сжатия : С потерями
    Заголовок : Original (English)
    Язык : English
    Default : Нет
    Forced : Нет
    Аудио #5
    Идентификатор : 6
    Формат : AC-3
    Формат/Информация : Audio Coding 3
    Расширение режима : CM (complete main)
    Параметр Endianness формата : Big
    Идентификатор кодека : A_AC3
    Продолжительность : 1 ч. 29 м.
    Вид битрейта : Постоянный
    Битрейт : 384 Кбит/сек
    Каналы : 6 каналов
    Расположение каналов : Front: L C R, Side: L R, LFE
    Частота : 48, 0 КГц
    Битовая глубина : 16 бит
    Метод сжатия : С потерями
    Размер потока : 246 Мбайт (7%)
    Заголовок : Original (English)
    Язык : English
    Default : Нет
    Forced : Нет
    Текст #1
    Идентификатор : 7
    Формат : UTF-8
    Идентификатор кодека : S_TEXT/UTF8
    Идентификатор кодека/Информация : UTF-8 Plain Text
    Заголовок : Rus
    Язык : Russian
    Default : Нет
    Forced : Нет
    Текст #2
    Идентификатор : 8
    Формат : UTF-8
    Идентификатор кодека : S_TEXT/UTF8
    Идентификатор кодека/Информация : UTF-8 Plain Text
    Заголовок : Eng
    Язык : English
    Default : Нет
    Forced : Нет

    Релиз подготовил: koharubiyori
    Залил: Soroka1989

    Онлайн видео Лето белой воды


    Размер скачиваемого торрента: 3.23 GB (3465498842 Bytes)

    Лето белой воды/White Water Summer (1987) WEB-DL 720p | P
    загрузка...
    Рейтинг →
     (голосов: 1, оценка 3/5, голосовать можно 1 раз )

    Другие торренты по теме:

  • Ведический календарь. Славяно-арийский календарь Коляды Дар на лето 7521, 2012-2013 год (2013) JPEG
  • Лето Джакомо / Lestate di Giacomo / Summer of Giacomo (2011) DVDRip | L1
  • Лето Ольги / Olgas Sommer (2002) DVDRip от ExKinoRay
  • Весна, лето, осень, зима... и снова весна / Bom yeoreum gaeul gyeoul geurigo bom (2003) BDRip от HQCLUB
  • Окно в лето / Fenster zum Sommer (2011) DVDRip AVC от Киномагия l P2
  • Пеэгель Юхан - Я погиб в первое военное лето (2009) MP3
  • Лето волков / Капли крови на цветущем вереске (2011) BDRip 1080 от Torrent-Xzona
  • Волчье лето / Ulvesommer (2003) DVD5


    • Комментарии (0):

      Информация

      Информация

        Посетители, находящиеся в группе Гости, не могут оставлять комментарии в данной новости.

        ↓ Меню



        ↓ Опрос

        А Вы добавили сайт в закладки?
        Да
        Не


        Top 10 за месяц (Фильмы)