.
Авторизация | Регистрация
Хочешь лучшие торренты? Добавь свой email!
Добавить
» » Только не без моей дочери / Not Without My Daughter (1991) HDTV 1080i | Р2 скачать торрент бесплатно




    Только не без моей дочери / Not Without My Daughter (1991) HDTV 1080i | Р2 скачать торрент бесплатно

    Опубликовал: Админ | Дата: 2-07-2016, 17:18 | Просмотров: 89



    Только не без моей дочери / Not Without My Daughter
    Снималось в: США
    Создали в: Ufland, Path? Entertainment
    Создали в: 1991
    Категория жанра: триллер, драма
    Время просмотра: 01: 50: 58
    Главный режиссер: Брайан Гилберт
    Авторы сценария: Дэвид В. Ринтелс, Бетти Махмуди, Уильям Хофнер

    Актеры
    Салли Филд, Альфред Молина, Шила Розенталь, Рошан Сет, Сара Бэдел, Мони Рей, Жорж Коррафас, Мэри Нелл Сантакрок, Эд Грейди, Марк Гоуэн
    Описание: Героиня фильма — американка Бетти Махмуди — замужем за американским врачом-анестезиологом иранского происхождения доктором Махмуди. У них есть четырехлетняя дочь Матоб. У Муди начинаются проблемы на работе, и он решает съездить в Иран на две недели навестить родственников. Перед отъездом он клянется на священном Коране, что никогда не запретит жене с дочерью уехать обратно, как только они захотят...

    Перевод текста: Профессиональный (двухголосый, закадровый) | НТВ+
    Субтитры: русские, английские
    Качество фильма: HDTV 1080i
    Тип видео: МКV
    Информация о видео кодек: AVC
    Информация о звуке кодек: МР3 | АС3
    Информация о видео: 1920x1080 (16: 9), 25.000 fps, MPEG-4 AVC ~7 229 kbps
    Информация о звуке №1: 48.0 kHz, MPEG Layer 3, 2 ch, ~192.00 kbps avg | RUS
    Информация о звуке №2: 48.0 kHz, AC3 Dolby Digital, 2/0 (L, R) ch, ~192 kbps | ENG
    Тип видео субтитров: UTF-8 Plain Text
    Дата премьеры (мир): 11 января 1991
    Media Info
    General
    Уникальный идентификатор : 177065021116365273109418245401499351340 (0x85357B8D740DCE8782DAE8B3A483392C)
    Полное имя : Not.Without.My.Daughter.1991.HDTV1080i.mkv
    Формат : Matroska
    Версия формата : Version 4/Version 2
    Размер файла : 6, 02 Гбайт
    Продолжительность : 1 ч. 50 м.
    Общий поток : 7768 Кбит/сек
    Дата кодирования : UTC 2014-03-31 07: 11: 24
    Программа кодирования : mkvmerge v6.8.0 (;Theme for Great Cities;) 32bit built on Mar 2 2014 21: 27: 07
    Библиотека кодирования : libebml v1.3.0 + libmatroska v1.4.1
    Видео
    Идентификатор : 1
    Формат : AVC
    Формат/Информация : Advanced Video Codec
    Параметр CABAC формата : Да
    Параметр ReFrames формата : 3 кадра
    Параметр GOP формата : M=4, N=32
    Идентификатор кодека : V_MPEG4/ISO/AVC
    Продолжительность : 1 ч. 50 м.
    Битрейт : 7229 Кбит/сек
    Ширина : 1920 пикселей
    Высота : 1080 пикселей
    Соотношение сторон : 16: 9
    Режим частоты кадров : Постоянный
    Частота кадров : 25, 000 кадров/сек
    Стандарт вещания : Component
    Цветовое пространство : YUV
    Субдискретизация насыщенности : 4: 2: 0
    Битовая глубина : 8 бит
    Тип развёртки : Чересстрочная
    Порядок развёртки : Верхнее поле первое
    Бит/(Пиксели*Кадры) : 0.139
    Размер потока : 5, 60 Гбайт (93%)
    Заголовок : Not Without My Daughter_HDTV1080i
    Default : Да
    Forced : Нет
    Основные цвета : BT.709
    Характеристики трансфера : BT.709
    Коэффициенты матрицы : BT.709
    Аудио #1
    Идентификатор : 2
    Формат : MPEG Audio
    Версия формата : Version 1
    Профиль формата : Layer 2
    Идентификатор кодека : A_MPEG/L2
    Идентификатор кодека/Подсказка : MP2
    Продолжительность : 1 ч. 50 м.
    Вид битрейта : Постоянный
    Битрейт : 192 Кбит/сек
    Каналы : 2 канала
    Частота : 48, 0 КГц
    Метод сжатия : С потерями
    Размер потока : 152 Мбайт (2%)
    Заголовок : Not Without My Daughter_MP2_2ch_DVO_NTV+
    Язык : Russian
    Default : Да
    Forced : Нет
    Аудио #2
    Идентификатор : 3
    Формат : AC-3
    Формат/Информация : Audio Coding 3
    Расширение режима : CM (complete main)
    Параметр Endianness формата : Big
    Идентификатор кодека : A_AC3
    Продолжительность : 1 ч. 50 м.
    Вид битрейта : Постоянный
    Битрейт : 192 Кбит/сек
    Каналы : 2 канала
    Расположение каналов : Front: L R
    Частота : 48, 0 КГц
    Битовая глубина : 16 бит
    Метод сжатия : С потерями
    Размер потока : 152 Мбайт (2%)
    Заголовок : Not Without My Daughter_AC3_2ch_original eng
    Язык : English
    Default : Нет
    Forced : Нет
    Текст
    Идентификатор : 4
    Формат : UTF-8
    Идентификатор кодека : S_TEXT/UTF8
    Идентификатор кодека/Информация : UTF-8 Plain Text
    Заголовок : Not Without My Daughter_subtitle eng
    Язык : English
    Default : Нет
    Forced : Нет

    Скриншоты

    Залил: Zha-4k-e

    Онлайн видео Только не без моей дочери


    Размер скачиваемого торрента: 6.02 GB (6464915626 Bytes)

    Только не без моей дочери/Not Without My Daughter (1991) HDTV 1080i | Р2
    загрузка...
    Рейтинг →
     (голосов: 1, оценка 3/5, голосовать можно 1 раз )

    Другие торренты по теме:

  • Только не с моей женой, не смей! / Not with My Wife, You Dont! (1966) DVDRip скачать через торрент бесплатно


    • Комментарии (0):

      Информация

      Информация

        Посетители, находящиеся в группе Гости, не могут оставлять комментарии в данной новости.

        ↓ Меню



        ↓ Опрос

        А Вы добавили сайт в закладки?
        Да
        Не


        Top 10 за месяц (Фильмы)