.
Авторизация | Регистрация
Хочешь лучшие торренты? Добавь свой email!
Добавить
» » Честь семьи Прицци / Prizzis Honor (1985) HDTVRip-AVC | P, A скачать торрент бесплатно




    Честь семьи Прицци / Prizzis Honor (1985) HDTVRip-AVC | P, A скачать торрент бесплатно

    Опубликовал: Админ | Дата: 1-07-2016, 14:24 | Просмотров: 69



    Категория жанра: Драма, Мелодрама, Криминал
    Создали в: США/ABC Motion Pictures
    Главный режиссер: Джон Хьюстон
    Актеры: Джек Николсон, Кэтлин Тёрнер, Уильям Хикки, Роберт Лоджа, Анжелика Хьюстон, Джон Рэндольф, Ли Ричардсон, Майкл Ломбард, Си Си Эйч Паундер, Лоуренс Тирни, Джордж Сантопьетро, Энн Селепеньо, Вик Полицос, Дик О’Нил, Салли Бойар

    Описание фильма

    Чарли — крестный сын клана Прицци, который не лезет в чужие дела, любит вкусно поесть и выпить, стремится поиметь побольше женщин и поубивать всех, кто стоит на пути семьи. Влюбившись в шикарную блондинку Айрин, он только после свадьбы узнает, что его красавица жена — наемная убийца, одна из лучших в этом бизнесе. А когда Чарли отправляют в Лас-Вегас, чтобы выправить кое-что для его Дона, он обнаруживает, что обожаемая Айрин слишком крута даже для его видавших виды глаз…
    Время просмотра: 2: 08: 36
    Качество фильма видео: HDTVRip-AVC
    Перевод текста: Профессиональный (многоголосый, закадровый), авторский (одноголосый, закадровый)
    Субтитры: Русский
    Информация о видео: AVC, 1024x568 (16: 9), 29.970 fps, 2 047 Kbps (0.117 bit/pixel)
    Информация о звуке #1: AC-3, 48.0 KHz, 6 ch, 384 Kbps, CBR (Russian) - многоголосый
    Информация о звуке #2: AC-3, 48.0 KHz, 2 ch, 192 Kbps, CBR (Russian) - авторский П.Карцев
    Информация о звуке #3: AC-3, 48.0 KHz, 2 ch, 192 Kbps, CBR (Russian) - авторский А.Михалёв
    Информация о звуке #4: AC-3, 48.0 KHz, 2 ch, 192 Kbps, CBR (English) - оригинал
    MediaInfo:
    Формат : Matroska
    Версия формата : Version 2
    Размер файла : 2, 70 Гбайт
    Продолжительность : 2 ч. 8 м.
    Общий поток : 3010 Кбит/сек
    Дата кодирования : UTC 2016-06-30 07: 55: 30
    Программа кодирования : mkvmerge v5.3.0 (;I could have danced;) built on Feb 9 2012 10: 38: 07
    Библиотека кодирования : libebml v1.2.3 + libmatroska v1.3.0
    Attachment : Yes
    Видео
    Идентификатор : 1
    Формат : AVC
    Формат/Информация : Advanced Video Codec
    Профиль формата : High@L4.1
    Параметр CABAC формата : Да
    Параметр ReFrames формата : 9 кадров
    Идентификатор кодека : V_MPEG4/ISO/AVC
    Продолжительность : 2 ч. 8 м.
    Битрейт : 2047 Кбит/сек
    Ширина : 1024 пикселя
    Высота : 568 пикселей
    Соотношение сторон : 16: 9
    Режим частоты кадров : Постоянный
    Частота кадров : 29, 970 кадров/сек
    Цветовое пространство : YUV
    Субдискретизация насыщенности : 4: 2: 0
    Битовая глубина : 8 бит
    Тип развёртки : Прогрессивная
    Бит/(Пиксели*Кадры) : 0.117
    Размер потока : 1, 79 Гбайт (66%)
    Библиотека кодирования : x264 core 146 r2538 121396c
    Настройки программы : cabac=1/ref=9/deblock=1: -2: -2/analyse=0x3: 0x133/me=umh/subme=10/psy=1/psy_rd=1.00: 0.10/mixed_ref=1/me_range=32/chroma_me=1/trellis=2/8x8dct=1/cqm=0/deadzone=21, 11/fast_pskip=0/chroma_qp_offset=-3/threads=12/lookahead_threads=2/sliced_threads=0/nr=0/decimate=0/interlaced=0/bluray_compat=0/constrained_intra=0/bframes=8/b_pyramid=2/b_adapt=2/b_bias=0/direct=3/weightb=1/open_gop=0/weightp=2/keyint=240/keyint_min=23/scenecut=40/intra_refresh=0/rc_lookahead=40/rc=2pass/mbtree=0/bitrate=2047/ratetol=1.0/qcomp=0.60/qpmin=0/qpmax=69/qpstep=4/cplxblur=20.0/qblur=0.5/vbv_maxrate=50000/vbv_bufsize=62500/nal_hrd=none/filler=0/ip_ratio=1.40/pb_ratio=1.30/aq=1: 0.60
    Default : Да
    Forced : Нет
    Аудио #1
    Идентификатор : 2
    Формат : AC-3
    Формат/Информация : Audio Coding 3
    Расширение режима : CM (complete main)
    Параметр Endianness формата : Big
    Идентификатор кодека : A_AC3
    Продолжительность : 2 ч. 8 м.
    Вид битрейта : Постоянный
    Битрейт : 384 Кбит/сек
    Каналы : 6 каналов
    Расположение каналов : Front: L C R, Side: L R, LFE
    Частота : 48, 0 КГц
    Битовая глубина : 16 бит
    Метод сжатия : С потерями
    Размер потока : 353 Мбайт (13%)
    Заголовок : MVO
    Язык : Russian
    Default : Да
    Forced : Нет
    Аудио #2
    Идентификатор : 3
    Формат : AC-3
    Формат/Информация : Audio Coding 3
    Расширение режима : CM (complete main)
    Параметр Endianness формата : Big
    Идентификатор кодека : A_AC3
    Продолжительность : 2 ч. 8 м.
    Вид битрейта : Постоянный
    Битрейт : 192 Кбит/сек
    Каналы : 2 канала
    Расположение каналов : Front: L R
    Частота : 48, 0 КГц
    Битовая глубина : 16 бит
    Метод сжатия : С потерями
    Размер потока : 177 Мбайт (6%)
    Заголовок : AVO (Пётр Карцев)
    Язык : Russian
    Default : Нет
    Forced : Нет
    Аудио #3
    Идентификатор : 4
    Формат : AC-3
    Формат/Информация : Audio Coding 3
    Расширение режима : CM (complete main)
    Параметр Endianness формата : Big
    Идентификатор кодека : A_AC3
    Продолжительность : 2 ч. 8 м.
    Вид битрейта : Постоянный
    Битрейт : 192 Кбит/сек
    Каналы : 2 канала
    Расположение каналов : Front: L R
    Частота : 48, 0 КГц
    Битовая глубина : 16 бит
    Метод сжатия : С потерями
    Размер потока : 177 Мбайт (6%)
    Заголовок : AVO (Алексей Михалёв)
    Язык : Russian
    Default : Нет
    Forced : Нет
    Аудио #4
    Идентификатор : 5
    Формат : AC-3
    Формат/Информация : Audio Coding 3
    Расширение режима : CM (complete main)
    Параметр Endianness формата : Big
    Идентификатор кодека : A_AC3
    Продолжительность : 2 ч. 8 м.
    Вид битрейта : Постоянный
    Битрейт : 192 Кбит/сек
    Каналы : 2 канала
    Расположение каналов : Front: L R
    Частота : 48, 0 КГц
    Битовая глубина : 16 бит
    Метод сжатия : С потерями
    Размер потока : 177 Мбайт (6%)
    Язык : English
    Default : Нет
    Forced : Нет
    Текст #1
    Идентификатор : 6
    Формат : UTF-8
    Идентификатор кодека : S_TEXT/UTF8
    Идентификатор кодека/Информация : UTF-8 Plain Text
    Заголовок : русский
    Язык : Russian
    Default : Нет
    Forced : Нет
    Текст #2
    Идентификатор : 7
    Формат : UTF-8
    Идентификатор кодека : S_TEXT/UTF8
    Идентификатор кодека/Информация : UTF-8 Plain Text
    Заголовок : английский
    Default : Нет
    Forced : Нет
    Меню
    00: 00: 00.000 : : Chapter 01
    00: 18: 33.345 : : Chapter 02
    00: 53: 11.488 : : Chapter 03
    01: 15: 02.731 : : Chapter 04
    01: 25: 42.136 : : Chapter 05
    02: 03: 34.340 : : Chapter 06

    Скриншоты:


    Онлайн видео Честь семьи Прицци


    Размер скачиваемого торрента: 2.70 GB (2903103369 Bytes)

    Честь семьи Прицци/Prizzis Honor (1985) HDTVRip-AVC | P, A
    загрузка...
    Рейтинг →
     (голосов: 1, оценка 3/5, голосовать можно 1 раз )

    Другие торренты по теме:

  • Честь семьи Прицци / Prizzis Honor (1985) HDTVRip | А
  • Честь семьи Прицци / Prizzis Honor (1985) HDTVRip-AVC | P, A
  • Честь семьи Прицци / Prizzis Honor (1985) BDRip 720p от Koenig | P, A


    • Комментарии (0):

      Информация

      Информация

        Посетители, находящиеся в группе Гости, не могут оставлять комментарии в данной новости.

        ↓ Меню



        ↓ Опрос

        А Вы добавили сайт в закладки?
        Да
        Не


        Top 10 за месяц (Фильмы)