.
Авторизация | Регистрация
Хочешь лучшие торренты? Добавь свой email!
Добавить
» » Образцовый самец 2 / Zoolander 2 (2016) BDRip | D | Лицензия скачать торрент бесплатно




    Образцовый самец 2 / Zoolander 2 (2016) BDRip | D | Лицензия скачать торрент бесплатно

    Опубликовал: Админ | Дата: 1-07-2016, 14:23 | Просмотров: 60



    Long time no Z
    Детально о кино
    Русское название: Образцовый самец 2
    Русское название в мировом прокате: Zoolander 2
    Создали в: 2016
    Категория жанра: Комедия
    Главный режиссер: Бен Стиллер

    Актеры
    Бен Стиллер, Оуэн Уилсон, Пенелопа Крус, Кристен Уиг, Уилл Феррелл, Бенедикт Камбербэтч, Оливия Манн, Кристин Тейлор, Ариана Гранде, Джастин Бибер, Билли Зейн, Мадалина Диана Генея, Сайрус Арнольд, Фред Армисен, Канье Уэст, Антонио Те Майохо, Мика, Льюис Хэмилтон, Евгения Темпеста, Алан Капелли Гетц

    Сюжет фильма

    Триумфальное возвращение на подиумы когда-то топовых, а ныне слегка потрепанных мужчин-моделей Дерека Зуландера и Ханселя в комедии о мире, где для обретения всеобщей популярности достаточно одного селфи.

    Снималось в: США
    Киностудия: Red Hour Films, Scott Rudin Productions, Paramount Pictures
    Время просмотра: 01: 41: 48
    Перевод текста: Профессиональный (полное дублирование)BD EUR
    Файл
    Качество фильма: BDRip (исх.Zoolander 2 2016 COMPLETE BLURAY-LAZERS )
    Кодек для видео: XviD
    Информация о видео: 720x304 (2, 35: 1), 23, 976 fps, XviD ~2158 kbps avg, 0.411 bit/pixel
    Информация о звуке: 48 kHz, AC3, 6 ch, ~448.00 kbps avg | русский|Профессиональный (полное дублирование)BD CEE
    Информация о звуке: 48 kHz, AC3, 6 ch, ~448.00 kbps avg | английский | Оригинал
    Субтитры: отсутствуют
    Семпл
    Инфо-файл
    Общее
    Полное имя : Obrazcovyj.samec.2.2016.D.BDRip.2.18Gb.avi
    Формат : AVI
    Формат/Информация : Audio Video Interleave
    Профиль формата : OpenDML
    Размер файла : 2, 18 Гбайт
    Продолжительность : 1 ч. 41 м.
    Общий поток : 3072 Кбит/сек
    Программа кодирования : VirtualDubMod 1.5.10.3 (build 2550/release)
    Библиотека кодирования : VirtualDubMod build 2550/release
    Видео
    Идентификатор : 0
    Формат : MPEG-4 Visual
    Профиль формата : Advanced Simple@L5
    Параметр BVOP формата : 2
    Параметр QPel формата : Нет
    Параметр GMC формата : Без точки перехода
    Параметр матрицы формата : Default (MPEG)
    Идентификатор кодека : XVID
    Идентификатор кодека/Подсказка : XviD
    Продолжительность : 1 ч. 41 м.
    Битрейт : 2158 Кбит/сек
    Ширина : 720 пикселей
    Высота : 304 пикселя
    Соотношение сторон : 2, 35: 1
    Частота кадров : 23, 976 (23976/1000) кадра/сек
    Цветовое пространство : YUV
    Субдискретизация насыщенности : 4: 2: 0
    Битовая глубина : 8 бит
    Тип развёртки : Прогрессивная
    Метод сжатия : С потерями
    Бит/(Пиксели*Кадры) : 0.411
    Размер потока : 1, 53 Гбайт (70%)
    Библиотека кодирования : XviD 73
    Аудио #1
    Идентификатор : 1
    Формат : AC-3
    Формат/Информация : Audio Coding 3
    Расширение режима : CM (complete main)
    Параметр Endianness формата : Big
    Идентификатор кодека : 2000
    Продолжительность : 1 ч. 41 м.
    Вид битрейта : Постоянный
    Битрейт : 448 Кбит/сек
    Каналы : 6 каналов
    Расположение каналов : Front: L C R, Side: L R, LFE
    Частота : 48, 0 КГц
    Частота кадров : 31, 250 кадров/сек (1536 spf)
    Метод сжатия : С потерями
    Размер потока : 326 Мбайт (15%)
    Выравнивание : Разделение по промежуткам
    Продолжительность промежутка : 42 мс. (1, 00 видеокадр)
    Время предзагрузки промежутка : 500 мс.
    Аудио #2
    Идентификатор : 2
    Формат : AC-3
    Формат/Информация : Audio Coding 3
    Расширение режима : CM (complete main)
    Параметр Endianness формата : Big
    Идентификатор кодека : 2000
    Продолжительность : 1 ч. 41 м.
    Вид битрейта : Постоянный
    Битрейт : 448 Кбит/сек
    Каналы : 6 каналов
    Расположение каналов : Front: L C R, Side: L R, LFE
    Частота : 48, 0 КГц
    Частота кадров : 31, 250 кадров/сек (1536 spf)
    Метод сжатия : С потерями
    Размер потока : 326 Мбайт (15%)
    Выравнивание : Разделение по промежуткам
    Продолжительность промежутка : 42 мс. (1, 00 видеокадр)
    Время предзагрузки промежутка : 500 мс.
    Скриншоты


    Онлайн видео Образцовый самец 2


    Размер скачиваемого торрента: 2.18 GB (2345091072 Bytes)

    Образцовый самец 2/Zoolander 2 (2016) BDRip | D | Лицензия
    загрузка...
    Рейтинг →
     (голосов: 1, оценка 3/5, голосовать можно 1 раз )

    Другие торренты по теме:

  • Образцовый самец / Zoolander (2001) BDRip 720p
  • Образцовый самец / Zoolander / 2001 / 2 х ПМ / BDRip
  • Образцовый самец / Zoolander / 2001 / ПМ / HDRip
  • Образцовый самец 2 / Zoolander 2 (2016) BDRip 720p | D | Line
  • Образцовый самец 2 / Zoolander 2 (2016) HDRip | D | Line
  • Образцовый самец 2 / Zoolander 2 (2016) BDRemux 1080p от ivandubskoj | D | Line
  • Образцовый самец 2 / Zoolander 2 (2016) BDRip 1080p от ExKinoRay | Line
  • Образцовый самец 2 / Zoolander 2 (2016)


    • Комментарии (0):

      Информация

      Информация

        Посетители, находящиеся в группе Гости, не могут оставлять комментарии в данной новости.

        ↓ Меню



        ↓ Опрос

        А Вы добавили сайт в закладки?
        Да
        Не


        Top 10 за месяц (Фильмы)