.
Авторизация | Регистрация
Хочешь лучшие торренты? Добавь свой email!
Добавить
» » Весна в Москве (1953) DVDRip от New-Team скачать торрент бесплатно




    Весна в Москве (1953) DVDRip от New-Team скачать торрент бесплатно

    Опубликовал: Админ | Дата: 1-07-2016, 14:23 | Просмотров: 77



    Снималось в: СССР
    Создали в: Ленфильм
    Категория жанра: драма
    Создали в: 1953
    Время просмотра: 01: 24: 24
    Перевод текста: Не требуется
    Субтитры подготовлены: нет
    Оригинальная аудиодорожка: русский
    Главный режиссер: Иосиф Хейфиц, Надежда Кошеверова

    Актеры

    Галина Короткевич, Владимир Петров, Юрий Бубликов, Анатолий Кузнецов (II), Владимир Таскин, Георгий Анчиц, Лев Шостак, Людмила Пономарёва, Анатолий Абрамов, Александра Тришко, Николай Лукинов, Сабина Суйковская...
    Полный список актёров
    Описание:
    Фильм-спектакль по одноименной пьесе Виктора Гусева.
    Постановка Ленинградского Нового театра. Режиссер и художник спектакля - Николай Акимов. Действие пьесы, написанной в 1941 году, перенесено в начало пятидесятых годов.
    Молодой историк Надежда Коврова, блистательно завершив первую работу, отвернувшись от друзей, сразу же пишет следующую. Ее постигает неудача. Тяжело пережив свое поражение, героиня находит поддержку у коллектива.


    Источник: DVD9 R5
    Качество фильма видео: DVDRip
    Тип видео видео: AVI
    Информация о видео: 576x432 (4: 3), 25 fps, XviD ~ 876 kbps avg, 0.141 bit/pixel
    Информация о звуке: 48 kHz, MP3 2.0, 128 kbps
    Раздача от:
    MediaInfo

    Общее
    Полное имя : Vesna.v.Moskve.1953.DVDRip-745_New-team_by_AVP_Studio.avi
    Формат : AVI
    Формат/Информация : Audio Video Interleave
    Размер файла : 743 Мбайт
    Продолжительность : 1 ч. 42 м.
    Общий поток : 1014 Кбит/сек
    Программа кодирования : VirtualDubModRus 1.5.10.2 (build 2542/release)
    Библиотека кодирования : VirtualDubMod build 2542/release
    Видео
    Идентификатор : 0
    Формат : MPEG-4 Visual
    Профиль формата : Advanced Simple@L5
    Параметр BVOP формата : 1
    Параметр QPel формата : Нет
    Параметр GMC формата : Без точки перехода
    Параметр матрицы формата : Выборочная
    Идентификатор кодека : XVID
    Идентификатор кодека/Подсказка : XviD
    Продолжительность : 1 ч. 42 м.
    Битрейт : 876 Кбит/сек
    Ширина : 576 пикселей
    Высота : 432 пикселя
    Соотношение сторон : 4: 3
    Частота кадров : 25, 000 кадров/сек
    Цветовое пространство : YUV
    Субдискретизация насыщенности : 4: 2: 0
    Битовая глубина : 8 бит
    Тип развёртки : Прогрессивная
    Метод сжатия : С потерями
    Бит/(Пиксели*Кадры) : 0.141
    Размер потока : 642 Мбайт (86%)
    Библиотека кодирования : XviD 1.2.1 (UTC 2008-12-04)
    Аудио
    Идентификатор : 1
    Формат : MPEG Audio
    Версия формата : Version 1
    Профиль формата : Layer 3
    Идентификатор кодека : 55
    Идентификатор кодека/Подсказка : MP3
    Продолжительность : 1 ч. 42 м.
    Вид битрейта : Постоянный
    Битрейт : 128 Кбит/сек
    Каналы : 2 канала
    Частота : 48, 0 КГц
    Метод сжатия : С потерями
    Размер потока : 93, 7 Мбайт (13%)
    Выравнивание : Соединение по промежуткам
    Продолжительность промежутка : 40 мс. (1, 00 видеокадр)
    Время предзагрузки промежутка : 504 мс

    Скриншоты



    Залил: AVPStudio

    Онлайн видео Весна в Москве (1953) DVDRip от New


    Размер скачиваемого торрента: 742.63 MB (778702848 Bytes)

    Весна в Москве (1953) DVDRip от New-Team
    загрузка...
    Рейтинг →
     (голосов: 1, оценка 5/5, голосовать можно 1 раз )

    Другие торренты по теме:

  • Весна, лето, осень, зима... и снова весна / Bom yeoreum gaeul gyeoul geurigo bom (2003) BDRip от HQCLUB
  • Весна, лето, осень, зима... и снова весна / Bom yeoreum gaeul gyeoul geurigo bom (2003) HDRip-AVC | iPhone
  • Весна, лето, осень, зима... и снова весна / Bom yeoreum gaeul gyeoul geurigo bom (2003) BDRip 720p | Gears Media скачать через торрент бесплатно
  • Весна, лето, осень, зима... и снова весна / Bom yeoreum gaeul gyeoul geurigo bom (2003) BDRip 720p от NNNB | A
  • Весна в моём родном городе / Areumdawoon sheejul (1998) DVDRip
  • Обои для рабочего стола - Весна (2013) JPG
  • Сборник - Бомба Года: Танцевальный Выпуск 50 50 Весна (2013) MP3
  • Сборник - Наступила весна (2013) MP3


    • Комментарии (0):

      Информация

      Информация

        Посетители, находящиеся в группе Гости, не могут оставлять комментарии в данной новости.

        ↓ Меню



        ↓ Опрос

        А Вы добавили сайт в закладки?
        Да
        Не


        Top 10 за месяц (Фильмы)