.
Авторизация | Регистрация
Хочешь лучшие торренты? Добавь свой email!
Добавить
» » Страшные сказки / Il racconto dei racconti (2015) BDRip | Лицензия скачать торрент бесплатно




    Страшные сказки / Il racconto dei racconti (2015) BDRip | Лицензия скачать торрент бесплатно

    Опубликовал: Админ | Дата: 1-07-2016, 05:00 | Просмотров: 68



    A feast for the imagination
    Детально о кино
    Русское название: Страшные сказки
    Русское название в мировом прокате: Il racconto dei racconti
    Создали в: 2015
    Категория жанра: Ужасы, фэнтези, мелодрама
    Главный режиссер: Маттео Гарроне

    Актеры
    Сальма Хайек, Венсан Кассель, Тоби Джонс, Джон С. Райлли, Ширли Хендерсон, Стэйси Мартин, Джесси Кейв, Альба Рорвахер

    Сюжет фильма

    Маги и волшебники, короли и королевы, красавицы-принцессы и страшилы-великаны населяют эту потрясающую готическую фантазию. Сластолюбивый Король Одинокого Утеса берет в жены прелестную деву, а она превращается в уродливую старуху. Отважный Король Долины Туманов отправляется на бой с драконом, поскольку волшебник предсказал, что королева понесет ребенка, если съест сердце дракона. Ну, а Король Диких Гор с любовью выращивает гигантскую блоху, а родную дочь без тени сожаления отдает в жены горному огру. За стенами величественных замков строятся коварные козни, даются безрассудные обеты, там страстно любят и жестоко убивают…

    Снималось в: Италия, Франция, Великобритания
    Киностудия: Archimede, Le Pacte, Rai Cinema
    Время просмотра: 02: 13: 30
    Перевод текста: Профессиональный (полное дублирование)
    Файл
    Качество фильма: BDRip (исх.Страшные сказки/Il racconto dei racconti (2015) BDRemux 1080p )
    Кодек для видео: XviD
    Информация о видео: 720x304 (2, 35: 1), 24 fps, XviD ~1880 kbps avg, 0.358 bit/pixel
    Информация о звуке: 48 kHz, AC3, 6 ch, ~448.00 kbps avg | русский |Профессиональный (полное дублирование)BD RUS
    Субтитры: Отсутствуют
    Семпл
    Инфо-файл
    Общее
    Полное имя : Il.racconto.dei.racconti.2015.BDRip.2.18Gb.avi
    Формат : AVI
    Формат/Информация : Audio Video Interleave
    Профиль формата : OpenDML
    Размер файла : 2, 18 Гбайт
    Продолжительность : 2 ч. 13 м.
    Общий поток : 2340 Кбит/сек
    Программа кодирования : VirtualDubMod 1.5.10.3 (build 2550/release)
    Библиотека кодирования : VirtualDub build 35491/release
    Видео
    Идентификатор : 0
    Формат : MPEG-4 Visual
    Профиль формата : Advanced Simple@L5
    Параметр BVOP формата : 2
    Параметр QPel формата : Нет
    Параметр GMC формата : Без точки перехода
    Параметр матрицы формата : Выборочная
    Идентификатор кодека : XVID
    Идентификатор кодека/Подсказка : XviD
    Продолжительность : 2 ч. 13 м.
    Битрейт : 1880 Кбит/сек
    Ширина : 720 пикселей
    Высота : 304 пикселя
    Соотношение сторон : 2, 35: 1
    Частота кадров : 24, 000 кадра/сек
    Цветовое пространство : YUV
    Субдискретизация насыщенности : 4: 2: 0
    Битовая глубина : 8 бит
    Тип развёртки : Прогрессивная
    Метод сжатия : С потерями
    Бит/(Пиксели*Кадры) : 0.358
    Размер потока : 1, 75 Гбайт (80%)
    Библиотека кодирования : XviD 73
    Аудио
    Идентификатор : 1
    Формат : AC-3
    Формат/Информация : Audio Coding 3
    Расширение режима : CM (complete main)
    Параметр Endianness формата : Big
    Идентификатор кодека : 2000
    Продолжительность : 2 ч. 13 м.
    Вид битрейта : Постоянный
    Битрейт : 448 Кбит/сек
    Каналы : 6 каналов
    Расположение каналов : Front: L C R, Side: L R, LFE
    Частота : 48, 0 КГц
    Частота кадров : 31, 250 кадров/сек (1536 spf)
    Метод сжатия : С потерями
    Размер потока : 427 Мбайт (19%)
    Выравнивание : Разделение по промежуткам
    Продолжительность промежутка : 42 мс. (1, 00 видеокадр)
    Время предзагрузки промежутка : 500 мс.
    Скриншоты


    Онлайн видео Страшные сказки


    Размер скачиваемого торрента: 2.18 GB (2340044418 Bytes)

    Страшные сказки/Il racconto dei racconti (2015) BDRip | Лицензия
    загрузка...
    Рейтинг →
     (голосов: 1, оценка 4/5, голосовать можно 1 раз )

    Другие торренты по теме:

  • Страшные сказки: Каменная Королева / Grim Tales 4: The Stone Queen CE (2013) PC
  • Страшные Сказки: Кровавая Мэри / Grim Tales 5: Bloody Mary CE (2013) РС
  • Ужасы по дешевке / Страшные сказки / Penny Dreadful (2014) HDTV 720р | Kerob
  • Ужасы по дешевке / Страшные сказки / Penny Dreadful (2014) HDTVRip | Kerob
  • Ужасы по дешевке / Страшные сказки / Penny Dreadful (2014) HDTVRip 720p | NewStudio скачать через торрент бесплатно
  • Ужасы по дешевке / Страшные сказки / Penny Dreadful (2014) HDTVRip | NewStudio скачать через торрент бесплатно
  • Ужасы по дешевке / Страшные сказки / Penny Dreadful (2014) HDTVRip | AlexFilm скачать через торрент бесплатно
  • Ужасы по дешевке / Страшные сказки / Penny Dreadful (2014) HDTVRip | BaibaKo скачать через торрент бесплатно


    • Комментарии (0):

      Информация

      Информация

        Посетители, находящиеся в группе Гости, не могут оставлять комментарии в данной новости.

        ↓ Меню



        ↓ Опрос

        А Вы добавили сайт в закладки?
        Да
        Не


        Top 10 за месяц (Фильмы)