.
Авторизация | Регистрация
Хочешь лучшие торренты? Добавь свой email!
Добавить
» » Большой всплеск / A Bigger Splash (2016) BDRemux 1080p от ExKinoRay | Line скачать торрент бесплатно




    Большой всплеск / A Bigger Splash (2016) BDRemux 1080p от ExKinoRay | Line скачать торрент бесплатно

    Опубликовал: Админ | Дата: 1-07-2016, 05:00 | Просмотров: 84



    Детально о кино
    Русское название: Большой всплеск
    Русское название в мировом прокате: A Bigger Splash
    Создали в: 2015
    Категория жанра: Триллер, криминал, детектив
    Главный режиссер: Лука Гуаданьино

    Актеры
    Тильда Суинтон, Маттиас Шонартс, Рэйф Файнс, Дакота Джонсон, Коррадо Гуццанти, Алессандро Феррара, Дэвид Маддалена, Аврора Клеман

    Сюжет фильма

    Рок-звезда Марианна Лэйн и ее бойфренд наслаждаются отдыхом на юге Италии. Островную идиллию пары нарушает визит Гарри, бывшего любовника Марианны, и его взрослой дочери. Легкомысленная игра, невинный флирт, настоящая страсть и всепоглощающая ревность обернутся для героев смертельной опасностью.

    Снималось в: Италия, Франция
    Киностудия: Cota Film, Frenesy Film Company, Ministero per i Beni e le Attivit? Culturali, Regione Siciliana
    Время просмотра: 02: 04: 18
    Перевод текста: Дублированный | Чистый звук
    Файл
    Кодек для видео: x264
    Качество фильма: BDRemux 1080p
    Информация о видео: 1920x1080, 29.8 Mbit/s, 24.000 fps
    Информация о звуке:
    Информация о звуке #01: 48 kHz, AC3, 2.0, 192 Kbps | Дублированный, Чистый звук |
    Информация о звуке #02: 48 kHz, DTS-HD MA, 5.1, 2193 kbps | Оригинал |
    Субтитры: Английские
    Релиз подготовил: Автор релиза:

    MI
    General
    Unique ID : 213208269648610837323685631296437272060 (0xA0666B49879D02D086DBBE9F4554BDFC)
    Complete name : F: VideoA.Bigger.Splash.2015.BDREMUX.1080p.ExKinoRay.mkv
    Format : Matroska
    Format version : Version 4/Version 2
    File size : 28.0 GiB
    Duration : 2h 4mn
    Overall bit rate mode : Variable
    Overall bit rate : 32.2 Mbps
    Movie name : A.Bigger.Splash.2015.BDREMUX.1080p.ExKinoRay
    Encoded date : UTC 2016-06-30 19: 15: 34
    Writing application : mkvmerge v8.3.0 (;Over the Horizon;) 64bit
    Writing library : libebml v1.3.1 + libmatroska v1.4.2
    Video
    ID : 1
    Format : AVC
    Format/Info : Advanced Video Codec
    Format profile : High@L4.1
    Format settings, CABAC : Yes
    Format settings, ReFrames : 4 frames
    Format settings, GOP : M=3, N=12
    Codec ID : V_MPEG4/ISO/AVC
    Duration : 2h 4mn
    Bit rate mode : Variable
    Bit rate : 29.8 Mbps
    Maximum bit rate : 33.0 Mbps
    Width : 1 920 pixels
    Height : 1 080 pixels
    Display aspect ratio : 16: 9
    Frame rate mode : Constant
    Frame rate : 24.000 fps
    Color space : YUV
    Chroma subsampling : 4: 2: 0
    Bit depth : 8 bits
    Scan type : Progressive
    Bits/(Pixel*Frame) : 0.599
    Stream size : 25.9 GiB (93%)
    Language : English
    Default : Yes
    Forced : No
    Audio #1
    ID : 2
    Format : AC-3
    Format/Info : Audio Coding 3
    Mode extension : CM (complete main)
    Format settings, Endianness : Big
    Codec ID : A_AC3
    Duration : 2h 4mn
    Bit rate mode : Constant
    Bit rate : 192 Kbps
    Channel(s) : 2 channels
    Channel positions : Front: L R
    Sampling rate : 48.0 KHz
    Frame rate : 31.250 fps (1536 spf)
    Compression mode : Lossy
    Stream size : 171 MiB (1%)
    Title : DUB Line
    Language : Russian
    Default : Yes
    Forced : No
    Audio #2
    ID : 3
    Format : DTS
    Format/Info : Digital Theater Systems
    Format profile : MA/Core
    Mode : 16
    Format settings, Endianness : Big
    Codec ID : A_DTS
    Duration : 2h 4mn
    Bit rate mode : Variable/Constant
    Bit rate : 2 193 Kbps/1 509 Kbps
    Channel(s) : 6 channels
    Channel positions : Front: L C R, Side: L R, LFE
    Sampling rate : 48.0 KHz
    Frame rate : 93.750 fps (512 spf)
    Bit depth : 16 bits
    Compression mode : Lossless/Lossy
    Stream size : 1.90 GiB (7%)
    Title : Original
    Language : English
    Default : No
    Forced : No
    Text #1
    ID : 4
    Format : UTF-8
    Codec ID : S_TEXT/UTF8
    Codec ID/Info : UTF-8 Plain Text
    Duration : 1h 58mn
    Bit rate : 46 bps
    Count of elements : 1205
    Stream size : 40.9 KiB (0%)
    Title : Full
    Language : English
    Default : No
    Forced : No
    Text #2
    ID : 5
    Format : UTF-8
    Codec ID : S_TEXT/UTF8
    Codec ID/Info : UTF-8 Plain Text
    Duration : 1h 59mn
    Bit rate : 53 bps
    Count of elements : 1423
    Stream size : 47.2 KiB (0%)
    Title : SDH
    Language : English
    Default : No
    Forced : No
    Menu
    00: 00: 00.000 : en: Chapter 1
    00: 10: 12.333 : en: Chapter 2
    00: 19: 03.250 : en: Chapter 3
    00: 29: 16.667 : en: Chapter 4
    00: 39: 19.875 : en: Chapter 5
    00: 49: 19.208 : en: Chapter 6
    01: 01: 37.750 : en: Chapter 7
    01: 11: 13.708 : en: Chapter 8
    01: 21: 06.167 : en: Chapter 9
    01: 30: 41.125 : en: Chapter 10
    01: 40: 09.708 : en: Chapter 11
    02: 00: 17.417 : en: Chapter 12
    Скриншоты


    Онлайн видео Большой всплеск


    Размер скачиваемого торрента: 27.97 GB (30036899137 Bytes)

    Большой всплеск/A Bigger Splash (2016) BDRemux 1080p от ExKinoRay | Line
    загрузка...
    Рейтинг →
     (голосов: 1, оценка 4/5, голосовать можно 1 раз )

    Другие торренты по теме:

  • Большой всплеск / A Bigger Splash (2016) BDRip 720p от ExKinoRay | Line
  • Большой всплеск / A Bigger Splash (2015) HDRip | D | Line
  • Большой всплеск / A Bigger Splash (2015) BDRip 720p | D | Line
  • Большой всплеск / A Bigger Splash (2015)
  • Большой всплеск / A Bigger Splash (2015) BDRip-AVC | D | Line
  • Большой всплеск / A Bigger Splash (2015) HDRip | iTunes
  • Большой всплеск / A Bigger Splash (2016) BDRemux 1080p от ExKinoRay | iTunes
  • Большой всплеск / A Bigger Splash (2015) BDRip 720p | iTunes


    • Комментарии (0):

      Информация

      Информация

        Посетители, находящиеся в группе Гости, не могут оставлять комментарии в данной новости.

        ↓ Меню



        ↓ Опрос

        А Вы добавили сайт в закладки?
        Да
        Не


        Top 10 за месяц (Фильмы)